当前位置: 首页 >> 日韩电影 >> 赤色天使.The.Red.Angel.1966.720p.BluRay.x264-ORBS 3.86GB >> 正文

赤色天使.The.Red.Angel.1966.720p.BluRay.x264-ORBS 3.86GB

2022年04月06日 20:52:15     电影发布:来源于网络     电影分类:日韩电影     评论(0)    

赤色天使.The.Red.Angel.1966.720p.BluRay.x264 ORBS 3.86GB 战争 爱情 剧情 日韩电影  第1张

◎译 名 赤色天使 / Akai tenshi / Red Angel

◎片 名 赤い天使

◎年 代 1966

◎产 地 日本

◎类 别 剧情 / 爱情 / 战争

◎语 言 日语

◎上映日期 1966-10-01

◎IMDb链接 https://www.imdb.com/title/tt0139820/

◎豆瓣评分 7.6/10 (691人评价)

◎豆瓣链接 https://movie.douban.com/subject/1303133/

◎片 长 95 分钟

◎导 演 增村保造 Yasuzo Masumura (id:1050508)

◎编 剧 笠原良三 Ry?z? Kasahara (id:1104510)

◎演 员 若尾文子 Ayako Wakao (id:1042051)

芦田伸介 Shinsuke Ashida (id:1034499)

川津祐介 Yusuke Kawazu (id:1313042)

筱田三郎 Saburo Shinoda (id:1038878)

赤木兰子 Ranko Akagi (id:1015718)

野田圭一 Kei'ichi Noda (id:1127659)

笠原玲子 Reiko Kasahara (id:1011485)

大叶健二 Kenji Ohba (id:1005488)

千波丈太郎 Jotaro Senba (id:1003168)

Setsuo Kobayashi Setsuo Kobayashi (id:1288794)

Tomoo Shimogawara Tomoo Shimogawara (id:1297472)

间野重雄 Shigeo Mano (id:1292710)

◎简 介

1939年,中日战争如火如荼。年轻的女护士西樱(若尾文子 饰)被派往天津日本陆军医院工作。她的清纯美丽吸引着一曾出生入死的年轻士兵们。某晚,樱被坂本(千波丈太郎 饰)为首的一众伤兵强暴,作为惩罚,坂本被重新派往战场。两个月后,战事不断吃紧。樱受遣前去援助深县的前线医院。 在这里,因战火而负伤的士兵不计其数。樱和主治医生冈部(芦田伸介 饰)每天马不停蹄,为了保住更多人的性命,他们甚至不得不通过截肢等手段以缩短治疗时间。在此期间,樱见到了伤重濒死的坂本,抚慰了失去双臂极度痛苦的一等兵折原(川津祐介 饰),也渐渐陷入对冈部医生的依恋之中。

在战火纷飞的年代里,即便在渺小的幸福也显得奢侈和无望……

本片根据有马赖义原作改编。

  1. Video

  2. ID : 1

  3. Format : AVC

  4. Format/Info : Advanced Video Codec

  5. Format profile : [email protected]

  6. Format settings : CABAC / 11 Ref Frames

  7. Format settings, CABAC : Yes

  8. Format settings, Reference frames : 11 frames

  9. Codec ID : V_MPEG4/ISO/AVC

  10. Duration : 1 h 34 min

  11. Bit rate : 5 060 kb/s

  12. Width : 1 280 pixels

  13. Height : 546 pixels

  14. Display aspect ratio : 2.35:1

  15. Frame rate mode : Constant

  16. Frame rate : 23.976 (24000/1001/53354) FPS

  17. Color space : YUV

  18. Chroma subsampling : 4:2:0

  19. Bit depth : 8 bits

  20. Scan type : Progressive

  21. Bits/(Pixel*Frame) : 0.302

  22. Stream size : 3.35 GiB (87%)

  23. Writing library : x264 core 164 r3094 bfc87b7

  24. Encoding settings : cabac=1 / ref=11 / deblock=1:-3:-3 / analyse=0x3:0x133 / me=umh / subme=10 / psy=1 / psy_rd=1.20:0.00 / mixed_ref=1 / me_range=24 / chroma_me=1 / trellis=2 / 8x8dct=1 / cqm=0 / deadzone=21,11 / fast_pskip=0 / chroma_qp_offset=-2 / threads=17 / lookahead_threads=2 / sliced_threads=0 / nr=0 / decimate=0 / interlaced=0 / NTMzNTQ= / bluray_compat=0 / constrained_intra=0 / bframes=8 / b_pyramid=2 / b_adapt=2 / b_bias=0 / direct=3 / weightb=1 / open_gop=0 / weightp=2 / keyint=250 / keyint_min=23 / NTMzNTQ=uuDQuD2mJt9fsCf / scenecut=40 / intra_refresh=0 / rc_lookahead=60 / rc=crf / mbtree=1 / crf=18.0 / qcomp=0.60 / qpmin=0 / qpmax=69 / qpstep=4 / NTMzNTQ=LmsMAP37EqsCpk / ip_ratio=1.40 / aq=3:0.90

  25. Default : Yes

  26. Forced : No

  27. Color range : Limited

  28. Matrix coefficients : BT.709


  29. Audio #1

  30. ID : 2

  31. Format : FLAC

  32. Format/Info : Free Lossless Audio Codec

  33. Codec ID : A_FLAC

  34. Duration : 1 h 34 min

  35. Bit rate mode : Variable

  36. Bit rate : 662 kb/s

  37. Channel(s) : 1 channel

  38. Channel layout : C

  39. Sampling rate : 48.0 kHz

  40. Frame rate : 11.719 FPS (4096 SPF)

  41. Bit depth : 24 bits

  42. Compression mode : Lossless

  43. Stream size : 449 MiB (11%)

  44. Writing library : libFLAC 1.3.3 (UTC 2019-08-04)

  45. Language : Japanese

  46. Default : Yes

  47. Forced : No


  48. Audio #2

  49. ID : 3

  50. Format : AAC LC

  51. Format/Info : Advanced Audio Codec Low Complexity

  52. Codec ID : A_AAC-2

  53. Duration : 1 h 34 min

  54. Bit rate : 96.0 kb/s

  55. Channel(s) : 2 channels

  56. Channel layout : L R

  57. Sampling rate : 48.0 kHz

  58. Frame rate : 46.875 FPS (1024 SPF)

  59. Compression mode : Lossy

  60. Delay relative to video : 20 ms

  61. Stream size : 64.1 MiB (2%)

  62. Title : Commentary

  63. Language : English

  64. Default : No

  65. Forced : No


  66. Text #1

  67. ID : 4

  68. Format : UTF-8

  69. Codec ID : S_TEXT/UTF8

  70. Codec ID/Info : UTF-8 Plain Text

  71. Duration : 1 h 34 min

  72. Bit rate : 39 b/s

  73. Count of elements : 879

  74. Stream size : 27.1 KiB (0%)

  75. Title : English (Forced)

  76. Language : English

  77. Default : Yes

  78. Forced : Yes


  79. Text #2

  80. ID : 5

  81. Format : PGS

  82. Muxing mode : zlib

  83. Codec ID : S_HDMV/PGS

  84. Codec ID/Info : Picture based subtitle format used on BDs/HD-DVDs

  85. Duration : 1 h 34 min

  86. Bit rate : 22.0 kb/s

  87. Count of elements : 1758

  88. Stream size : 14.9 MiB (0%)

  89. Language : English

  90. Default : No

  91. Forced : No


  92. Menu

  93. 00:00:00.000 : Chapter 01

  94. 00:07:11.389 : Chapter 02

  95. 00:16:33.618 : Chapter 03

  96. 00:24:01.690 : Chapter 04

  97. 00:31:59.376 : Chapter 05

  98. 00:39:56.936 : Chapter 06

  99. 00:47:33.184 : Chapter 07

  100. 00:57:08.467 : Chapter 08

  101. 01:04:09.512 : Chapter 09

  102. 01:10:52.540 : Chapter 10

  103. 01:19:48.867 : Chapter 11

  104. 01:27:44.426 : Chapter 12

  105. 01:34:48.016 : Chapter 13

复制代码

赤色天使.The.Red.Angel.1966.720p.BluRay.x264 ORBS 3.86GB 战争 爱情 剧情 日韩电影  第2张



文件下载


除非特别注明,本文『赤色天使.The.Red.Angel.1966.720p.BluRay.x264-ORBS 3.86GB』来源于互联网机器人自动抓取,非本站原创。 浮游电影网不对本文拥有版权,如有侵犯,请联系邮箱:fuyouu#yandex.com[#换成@]投诉。我们会在15个工作日内删除。 但烦请转载时请标明出处:“本文转载于『浮游电影网』,原文地址:https://www.fuyouu.com/21148.html

评论吧骚年!

发表你的见解   

昵称*

E-mail*(建议输入,以便收到博主回复的提示邮件)

验证码*

您可以使用eMule或eMule Mod(Windows)、aMule(Win、Linux、Mac)等软件下载eD2k链接。。
eMule收藏集(.emulecollection)文件是您选中的所有链接的列表文件。eMule可以直接下载它们。
按住SHIFT键选择可以选中多个选择框。
可用文件名和大小选择器来选择文件。
文件名选择器帮您根据文件名称或后缀来选择文件。不分大小写。
符号使用:
和:空格( )、+
不包含:-
或:|
转义:一对英文引号("");
匹配开头:^
匹配结尾:$
例如:
选中所有名称中包含有“eMule”或“0.49c”字眼,但不包含有“exe”字眼的:emule|0.49c -exe
选中所有名称的开头是“eMule”,结尾是“0.49c”的:^emule 0.49c$
选中所有名称中带有“eMule 0.49c”的(必须是“eMule 0.49c”,中间没有别的字符,不能是“eMule fake 0.49c”),需要转义:"emule 0.49c"
大小选择器帮您根据文件大小选择文件。