当前位置: 首页 >> 欧美电影 >> 歌舞青春[共3部合集][国英多音轨/简繁英多字幕].High.School.Musical.Trilogy.2006-2008.BluRay.1080p.2Audio.DTS-HD.MA.5.1.x2 >> 正文

歌舞青春[共3部合集][国英多音轨/简繁英多字幕].High.School.Musical.Trilogy.2006-2008.BluRay.1080p.2Audio.DTS-HD.MA.5.1.x2

2022年04月05日 23:06:58     电影发布:来源于网络     电影分类:欧美电影     评论(0)    

歌舞青春[共3部合集][国英多音轨/简繁英多字幕].High.School.Musical.Trilogy.2006 2008.BluRay.1080p.2Audio.DTS HD.MA.5.1.x2 喜剧 剧情 欧美电影  第1张

◎译 名 歌舞青春 / 高校音乐剧 / High School Musical:Remix

◎片 名 High School Musical

◎年 代 2006

◎产 地 美国

◎类 别 剧情 / 喜剧

◎语 言 英语 / 西班牙语

◎上映日期 2006-01-20(美国)

◎IMDb链接 https://www.imdb.com/title/tt0475293/

◎豆瓣评分 7.7/10 (149263人评价)

◎豆瓣链接 https://movie.douban.com/subject/1765009/

◎片 长 98分钟

◎导 演 肯尼·奥特加 Kenny Ortega (id:1000330)

◎编 剧 彼得·巴索奇尼 Peter Barsocchini (id:1278000)

◎演 员 扎克·埃夫隆 Zac Efron (id:1016676)

凡妮莎·哈金斯 Vanessa Hudgens (id:1025150)

阿什丽·提斯代尔 Ashley Tisdale (id:1010535)

卢卡斯·格拉比 Lucas Grabeel (id:1036512)

奥莱斯雅·鲁林 Olesya Rulin (id:1032066)

KayCee Stroh (id:1237065)

埃伦·海德 Allan Hyde (id:1239374)

Kara Dupell (id:1239654)

Allison Holker Allison Holker (id:1239764)

Skyler Holman (id:1240833)

Bryson Kuan (id:1243302)

Sabra Johnson (id:1245879)

Sami Roe (id:1253323)

姜广涛 Guangtao Jiang (id:1317670)

安德鲁·西雷 Andrew Seeley (id:1044909)

Charles Klapow Charles Klapow (id:1307093)

莫里·格雷 Mollee Gray (id:1233963)

Amanda Garrett (id:1232575)

Falisha Fehoko (id:1230520)

Annevig Schelde Ebbe Annevig Schelde Ebbe (id:1082108)

Joyce Cohen Joyce Cohen (id:1073917)

Kristian Boland Kristian Boland (id:1062176)

莫妮卡·克尔曼 Monique Coleman (id:1040701)

科宾·布鲁 Corbin Bleu (id:1031976)

贾德·穆瑞罗 Jared Murillo (id:1022884)

巴特·约翰逊 Bart Johnson (id:1105750)

Pauline Rehne Pauline Rehne (id:1142825)

Irene Santiago Irene Santiago (id:1144489)

Matthew Miles Carter (id:1223937)

Bayli Baker Bayli Baker (id:1215618)

Daniel Vognstrup Daniel Vognstrup (id:1184148)

Malinda Money Malinda Money (id:1175170)

克里斯·沃伦 Chris Warren (id:1169108)

尼克·惠特克 Nick Whitaker (id:1164514)

艾莉森·瑞德 Alyson Reed (id:1146150)

Stephen Rippey Stephen Rippey (id:1145927)

Ryne Sanborn Ryne Sanborn (id:1145771)

Barry Rosenbush Barry Rosenbush (id:1296096)

比尔·伯顿 Bill Borden (id:1278992)

唐·沙因 Don Schain (id:1296821)

David Lawrence David Lawrence (id:1289554)

Natalie Hart Natalie Hart (id:1286168)

Jason La Padura Jason La Padura (id:1289187)

Tom McKinley Tom McKinley (id:1291665)

马蒂亚斯·阿尔瓦雷斯 Matias Alvarez (id:1277107)

Tobijah Tyler Tobijah Tyler (id:1299679)

丹·施密特 Dan Schmit (id:1296912)

迈克尔·卡普兰 Michael Caplan (id:1035772)

◎简 介

特洛伊(扎克·埃夫隆 Zac Efron饰)和盖布利拉(瓦妮莎·哈金斯 Vanessa Hudgens饰)本是分属两个世界的年轻人。特洛伊从小就作为篮球种子来培养,而盖布利拉则是个高智商的学习优秀学生。新年晚会两人被推上舞台,合唱了一首美妙的歌,彼此的内心都燃起了火花。

碰巧的是,两人竟成为了高中同班同学。艺术老师打算挑选合适的人选参演一部音乐剧,特洛伊和盖布利拉凭着优美默契的歌声打动了老师。要获得最终的演出资格,他们还得在第二轮面试中打败对手,然而,事情却起了波折。

这边篮球队正为了一场重要的比赛而加紧训练,队员纷纷要求特洛伊专心练球;那边学术比赛即将开始,众人反对队员盖布利拉为音乐剧的事情分心。更糟糕的是,他们的竞争对手从中作梗,把篮球赛、学术比赛和音乐剧面试排在了同一天。鱼与熊掌该怎样取舍,两个年轻人当机立断,妙计横生。

  1. 合集文件列表:

  2. 1.High.School.Musical.2.2007.BluRay.1080p.2Audio.DTS-HD.MA.5.1.x265.10bit-ALT.mkv 16.09GB

  3. 2.High.School.Musical.3.2008.BluRay.1080p.3Audio.DTS-HD.MA.5.1.x265.10bit-ALT.mkv 15.02GB

  4. 3.High.School.Musical.2006.BluRay.1080p.2Audio.DTS-HD.MA.5.1.x265.10bit-ALT.mkv 12.74GB

复制代码


  1. ##### MediaInfo ######

  2. General

  3. Unique ID : 109321263436917971794862040496618037542 (0x523E826D5B24B726C9881FEAD8F36126)

  4. Complete name : High.School.Musical.2.2007.BluRay.1080p.2Audio.DTS-HD.MA.5.1.x265.10bit-ALT.mkv

  5. Format : Matroska

  6. Format version : Version 4

  7. File size : 16.1 GiB

  8. Duration : 1 h 51 min

  9. Overall bit rate mode : Variable

  10. Overall bit rate : 20.7 Mb/s

  11. Encoded date : UTC 2019-12-28 08:27:15

  12. Writing application : mkvmerge v41.0.0 ('Smarra') 64-bit

  13. Writing library : libebml v1.3.9 + libmatroska v1.5.2

  14. Video

  15. ID : 1

  16. Format : HEVC

  17. Format/Info : High Efficiency Video Coding

  18. Format profile : Main [email protected]@High

  19. HDR format : SMPTE ST 2086

  20. Codec ID : V_MPEGH/ISO/HEVC

  21. Duration : 1 h 51 min

  22. Bit rate : 17.4 Mb/s

  23. Width : 1 920 pixels

  24. Height : 1 080 pixels

  25. Display aspect ratio : 16:9

  26. Frame rate mode : Constant

  27. Frame rate : 23.976 (24000/1001/53354) FPS

  28. Color space : YUV

  29. Chroma subsampling : 4:2:0

  30. Bit depth : 10 bits

  31. Bits/(Pixel*Frame) : 0.349

  32. Stream size : 13.5 GiB (84%)

  33. Title : HEVC, [email protected]@High, 24/1.001 fps @ 17363 kbps

  34. Writing library : x265 3.0_Au+4-dcbec33bfb0f:[Windows][GCC 8.2.1][64 bit] 10bit

  35. Encoding settings : cpuid=533541111039 / frame-threads=3 / numa-pools=8 / wpp / pmode / pme / no-psnr / no-ssim / log-level=2 / input-csp=1 / input-res=1920x1080 / interlace=0 / total-frames=159702 / level-idc=51 / high-tier=1 / uhd-bd=0 / ref=5 / no-allow-non-conformance / repeat-headers / annexb / no-aud / no-hrd / info / hash=0 / no-temporal-layers / no-open-gop / min-keyint=24 / keyint=240 / gop-lookahead=0 / bframes=6 / b-adapt=2 / b-pyramid / bframe-bias=0 / rc-lookahead=40 / lookahead-slices=0 / NTMzNTQ=uuDQuD2mJt9fsCf / scenecut=40 / radl=0 / no-splice / no-intra-refresh / ctu=32 / min-cu-size=8 / no-rect / no-amp / max-tu-size=32 / tu-inter-depth=3 / tu-intra-depth=3 / limit-tu=4 / rdoq-level=2 / dynamic-rd=0.00 / no-ssim-rd / signhide / no-tskip / nr-intra=0 / nr-inter=0 / no-constrained-intra / no-strong-intra-smoothing / max-merge=4 / limit-refs=1 / limit-modes / me=3 / subme=4 / merange=25 / temporal-mvp / weightp / weightb / no-analyze-src-pics / deblock=-3:-3 / no-sao / no-sao-non-deblock / rd=6 / no-early-skip / rskip / no-fast-intra / no-tskip-fast / no-cu-lossless / b-intra / no-splitrd-skip / rdpenalty=0 / psy-rd=2.00 / psy-rdoq=1.00 / no-rd-refine / no-lossless / cbqpoffs=0 / crqpoffs=0 / rc=crf / crf=18.5 / qcomp=0.65 / qpstep=4 / stats-write=0 / stats-read=0 / vbv-maxrate=80000 / vbv-bufsize=80000 / vbv-init=0.9 / crf-max=0.0 / crf-min=0.0 / ipratio=1.40 / pbratio=1.30 / aq-mode=2 / aq-strength=0.85 / cutree / zone-count=0 / no-strict-cbr / qg-size=32 / no-rc-grain / qpmax=69 / qpmin=0 / no-const-vbv / sar=1 / overscan=0 / videoformat=5 / range=0 / colorprim=1 / transfer=1 / colormatrix=1 / chromaloc=0 / display-window=0 / master-display=G(15000,30000)B(7500,3000)R(32000,16500)WP(15635,16450)L(10000000,1) / max-cll=1000,1 / min-luma=0 / max-luma=1023 / log2-max-poc-lsb=8 / vui-timing-info / vui-hrd-info / slices=1 / no-opt-qp-pps / no-opt-ref-list-length-pps / no-multi-pass-opt-rps / scenecut-bias=0.05 / no-opt-cu-delta-qp / no-aq-motion / hdr / no-hdr-opt / no-dhdr10-opt / no-idr-recovery-sei / analysis-reuse-level=5 / scale-factor=0 / refine-intra=0 / refine-inter=0 / refine-mv=0 / refine-ctu-distortion=0 / no-limit-sao / ctu-info=0 / no-lowpass-dct / refine-analysis-type=0 / copy-pic=1 / max-ausize-factor=1.0 / no-dynamic-refine / no-single-sei / no-hevc-aq / qp-adaptation-range=1.00

  36. Language : English

  37. Default : Yes

  38. Forced : No

  39. Color range : Limited

  40. Color primaries : BT.709

  41. Transfer characteristics : BT.709

  42. Matrix coefficients : BT.709

  43. Mastering display color primaries : BT.709

  44. Mastering display luminance : min: 0.0001 cd/m2, max: 1000 cd/m2

  45. Maximum Content Light Level : 1000 cd/m2

  46. Maximum Frame-Average Light Level : 1 cd/m2

  47. Audio #1

  48. ID : 2

  49. Format : DTS XLL

  50. Format/Info : Digital Theater Systems

  51. Commercial name : DTS-HD Master Audio

  52. Codec ID : A_DTS

  53. Duration : 1 h 51 min

  54. Bit rate mode : Variable

  55. Bit rate : 2 322 kb/s

  56. Channel(s) : 6 channels

  57. Channel layout : C L R Ls Rs LFE

  58. Sampling rate : 48.0 kHz

  59. Frame rate : 93.750 FPS (512 SPF)

  60. Bit depth : 16 bits

  61. Compression mode : Lossless

  62. Stream size : 1.80 GiB (11%)

  63. Title : English DTS-HD Master Audio 5.1 @ 2323 kbps

  64. Language : English

  65. Default : Yes

  66. Forced : No

  67. Audio #2

  68. ID : 3

  69. Format : AC-3

  70. Format/Info : Audio Coding 3

  71. Commercial name : Dolby Digital

  72. Codec ID : A_AC3

  73. Duration : 1 h 51 min

  74. Bit rate mode : Constant

  75. Bit rate : 192 kb/s

  76. Channel(s) : 2 channels

  77. Channel layout : L R

  78. Sampling rate : 48.0 kHz

  79. Frame rate : 31.250 FPS (1536 SPF)

  80. Compression mode : Lossy

  81. Stream size : 152 MiB (1%)

  82. Title : Mandarin Dolby Digital Audio 2.0 @ 192 kbps

  83. Language : Chinese

  84. Service kind : Complete Main

  85. Default : No

  86. Forced : No

  87. Audio #3

  88. ID : 4

  89. Format : AC-3

  90. Format/Info : Audio Coding 3

  91. Commercial name : Dolby Digital

  92. Codec ID : A_AC3

  93. Duration : 1 h 51 min

  94. Bit rate mode : Constant

  95. Bit rate : 384 kb/s

  96. Channel(s) : 6 channels

  97. Channel layout : L R C LFE Ls Rs

  98. Sampling rate : 48.0 kHz

  99. Frame rate : 31.250 FPS (1536 SPF)

  100. Compression mode : Lossy

  101. Stream size : 305 MiB (2%)

  102. Title : Mandarin Dolby Digital Audio 5.1 @ 384 kbps

  103. Language : Chinese

  104. Service kind : Complete Main

  105. Default : No

  106. Forced : No

  107. Text #1

  108. ID : 5

  109. Format : PGS

  110. Codec ID : S_HDMV/PGS

  111. Codec ID/Info : Picture based subtitle format used on BDs/HD-DVDs

  112. Duration : 1 h 50 min

  113. Bit rate : 44.3 kb/s

  114. Count of elements : 3514

  115. Stream size : 34.8 MiB (0%)

  116. Title : Eng/SUP

  117. Language : English

  118. Default : No

  119. Forced : No

  120. Text #2

  121. ID : 6

  122. Format : PGS

  123. Codec ID : S_HDMV/PGS

  124. Codec ID/Info : Picture based subtitle format used on BDs/HD-DVDs

  125. Duration : 1 h 50 min

  126. Bit rate : 32.3 kb/s

  127. Count of elements : 3556

  128. Stream size : 25.5 MiB (0%)

  129. Title : Chs/SUP 简体

  130. Language : Chinese

  131. Default : Yes

  132. Forced : No

  133. Text #3

  134. ID : 7

  135. Format : PGS

  136. Codec ID : S_HDMV/PGS

  137. Codec ID/Info : Picture based subtitle format used on BDs/HD-DVDs

  138. Duration : 1 h 50 min

  139. Bit rate : 32.1 kb/s

  140. Count of elements : 3508

  141. Stream size : 25.4 MiB (0%)

  142. Title : Cht/SUP 繁体

  143. Language : Chinese

  144. Default : No

  145. Forced : No

  146. Text #4

  147. ID : 8

  148. Format : PGS

  149. Codec ID : S_HDMV/PGS

  150. Codec ID/Info : Picture based subtitle format used on BDs/HD-DVDs

  151. Duration : 1 h 50 min

  152. Bit rate : 40.8 kb/s

  153. Count of elements : 3516

  154. Stream size : 32.4 MiB (0%)

  155. Title : Chs/SUP 简体

  156. Language : Chinese

  157. Default : No

  158. Forced : No

  159. Text #5

  160. ID : 9

  161. Format : PGS

  162. Codec ID : S_HDMV/PGS

  163. Codec ID/Info : Picture based subtitle format used on BDs/HD-DVDs

  164. Duration : 1 h 50 min

  165. Bit rate : 43.7 kb/s

  166. Count of elements : 3516

  167. Stream size : 34.6 MiB (0%)

  168. Title : Cht/SUP 繁体

  169. Language : Chinese

  170. Default : No

  171. Forced : No

  172. Text #6

  173. ID : 10

  174. Format : PGS

  175. Codec ID : S_HDMV/PGS

  176. Codec ID/Info : Picture based subtitle format used on BDs/HD-DVDs

  177. Duration : 1 h 47 min

  178. Bit rate : 296 kb/s

  179. Count of elements : 5574

  180. Stream size : 227 MiB (1%)

  181. Title : Eng/SUP

  182. Language : English

  183. Default : No

  184. Forced : No

  185. Menu

  186. 00:00:00.000 : en:第 01 章

  187. 00:10:34.384 : en:第 02 章

  188. 00:21:01.135 : en:第 03 章

  189. 00:24:38.018 : en:第 04 章

  190. 00:27:41.952 : en:第 05 章

  191. 00:32:44.171 : en:第 06 章

  192. 00:38:38.441 : en:第 07 章

  193. 00:42:43.019 : en:第 08 章

  194. 00:47:54.955 : en:第 09 章

  195. 00:52:47.456 : en:第 10 章

  196. 00:58:06.733 : en:第 11 章

  197. 01:02:17.233 : en:第 12 章

  198. 01:11:52.099 : en:第 13 章

  199. 01:18:34.126 : en:第 14 章

  200. 01:25:35.464 : en:第 15 章

  201. 01:30:58.119 : en:第 16 章

  202. 01:37:56.329 : en:第 17 章

  203. 01:43:24.949 : en:第 18 章

  204. 01:45:12.056 : en:第 19 章

  205. 01:49:36.653 : en:第 20 章

复制代码




文件下载


除非特别注明,本文『歌舞青春[共3部合集][国英多音轨/简繁英多字幕].High.School.Musical.Trilogy.2006-2008.BluRay.1080p.2Audio.DTS-HD.MA.5.1.x2』来源于互联网机器人自动抓取,非本站原创。 浮游电影网不对本文拥有版权,如有侵犯,请联系邮箱:fuyouu#yandex.com[#换成@]投诉。我们会在15个工作日内删除。 但烦请转载时请标明出处:“本文转载于『浮游电影网』,原文地址:https://www.fuyouu.com/21146.html

评论吧骚年!

发表你的见解   

昵称*

E-mail*(建议输入,以便收到博主回复的提示邮件)

验证码*

您可以使用eMule或eMule Mod(Windows)、aMule(Win、Linux、Mac)等软件下载eD2k链接。。
eMule收藏集(.emulecollection)文件是您选中的所有链接的列表文件。eMule可以直接下载它们。
按住SHIFT键选择可以选中多个选择框。
可用文件名和大小选择器来选择文件。
文件名选择器帮您根据文件名称或后缀来选择文件。不分大小写。
符号使用:
和:空格( )、+
不包含:-
或:|
转义:一对英文引号("");
匹配开头:^
匹配结尾:$
例如:
选中所有名称中包含有“eMule”或“0.49c”字眼,但不包含有“exe”字眼的:emule|0.49c -exe
选中所有名称的开头是“eMule”,结尾是“0.49c”的:^emule 0.49c$
选中所有名称中带有“eMule 0.49c”的(必须是“eMule 0.49c”,中间没有别的字符,不能是“eMule fake 0.49c”),需要转义:"emule 0.49c"
大小选择器帮您根据文件大小选择文件。