当前位置: 首页 >> 欧美电影 >> 终极标靶[共2部合集][繁英多字幕].Hard.Target.1-2.1993-2016.BluRay.1080p.DTS-HD.MA5.1.x265.10bit-ALT 22.56GB >> 正文

终极标靶[共2部合集][繁英多字幕].Hard.Target.1-2.1993-2016.BluRay.1080p.DTS-HD.MA5.1.x265.10bit-ALT 22.56GB

2022年04月05日 23:05:39     电影发布:来源于网络     电影分类:欧美电影     评论(0)    

终极标靶[共2部合集][繁英多字幕].Hard.Target.1 2.1993 2016.BluRay.1080p.DTS HD.MA5.1.x265.10bit ALT 22.56GB 惊悚 动作 欧美电影  第1张

◎译 名 终极标靶2

◎片 名 Hard Target 2

◎年 代 2016

◎产 地 美国

◎类 别 动作 / 惊悚

◎语 言 英语

◎上映日期 2016-09-06(美国)

◎IMDb链接 https://www.imdb.com/title/tt5241578/

◎豆瓣评分 5.0/10 (886人评价)

◎豆瓣链接 https://movie.douban.com/subject/26685114/

◎片 长 104分钟

◎导 演 罗伊·雷内 Roel Reiné (id:1276459)

◎演 员 斯科特·阿金斯 Scott Adkins (id:1017912)

罗伯特·克耐普 Robert Knepper (id:1010576)

特穆拉·莫里森 Temuera Morrison (id:1013898)

杰米·提莫尼 Jamie Timony (id:1246889)

肖恩·基南 Sean Keenan (id:1014240)

罗娜·迈特拉 Rhona Mitra (id:1022569)

Adam Saunders Adam Saunders (id:1139333)

Peter Hardy Peter Hardy (id:1093077)

萨哈贾克·波斯安吉特 Sahajak Boonthanakit (id:1351809)

杰弗里·朱利亚诺 Geoffrey Giuliano (id:1093313)

阿马林·查尔韦波 Amarin Cholvibul (id:1371380)

◎简 介

Retired mixed martial artist Wes "The Jailor" Baylor (Scott Adkins) can't refuse a million-dollar purse he's offered for one final bout in Myanmar. But when he arrives for the fight, he learns he's been tricked into BECOMING the target of a human hunt. Carrying only water and a ruby-filled money belt for the last person standing, Wes must outsmart the heavily armed group that h...

  1. 合集文件列表:

  2. 1.Hard.Target.2.2016.BluRay.1080p.DTS-HD.MA5.1.x265.10bit-ALT.mkv 10.43GB

  3. 2.Hard.Target.1993.BluRay.1080p.DTS-HD.MA5.1.x265.10bit-ALT.mkv 12.12GB


复制代码

  1. ##### MediaInfo ######

  2. General

  3. Unique ID : 74035235999331601753778371390986220254 (0x37B2AAF49E73149201E8E8923CD372DE)

  4. Complete name : Hard.Target.2.2016.BluRay.1080p.DTS-HD.MA5.1.x265.10bit-ALT.mkv

  5. Format : Matroska

  6. Format version : Version 4

  7. File size : 10.4 GiB

  8. Duration : 1 h 43 min

  9. Overall bit rate mode : Variable

  10. Overall bit rate : 14.4 Mb/s

  11. Encoded date : UTC 2021-10-15 06:47:18

  12. Writing application : mkvmerge v49.0.0 ('Sick Of Losing Soulmates') 64-bit

  13. Writing library : libebml v1.4.0 + libmatroska v1.6.1

  14. Video

  15. ID : 1

  16. Format : HEVC

  17. Format/Info : High Efficiency Video Coding

  18. Format profile : Main [email protected]@High

  19. Codec ID : V_MPEGH/ISO/HEVC

  20. Duration : 1 h 43 min

  21. Bit rate : 9 659 kb/s

  22. Width : 1 920 pixels

  23. Height : 1 080 pixels

  24. Display aspect ratio : 16:9

  25. Frame rate mode : Constant

  26. Frame rate : 23.976 (24000/1001/53354) FPS

  27. Color space : YUV

  28. Chroma subsampling : 4:2:0

  29. Bit depth : 10 bits

  30. Bits/(Pixel*Frame) : 0.194

  31. Stream size : 6.99 GiB (67%)

  32. Title : HEVC, [email protected]@High, 24/1.001 fps @ 9658 kbps

  33. Writing library : x265 3.4+14-gd419c7152:[Windows][GCC 10.2.0][64 bit] 10bit

  34. Encoding settings : cpuid=533541111039 / frame-threads=4 / numa-pools=20 / wpp / pmode / pme / no-psnr / no-ssim / log-level=2 / input-csp=1 / input-res=1920x1080 / interlace=0 / total-frames=148969 / level-idc=51 / high-tier=1 / uhd-bd=0 / ref=5 / no-allow-non-conformance / no-repeat-headers / annexb / no-aud / no-hrd / info / hash=0 / no-temporal-layers / open-gop / min-keyint=24 / keyint=240 / gop-lookahead=0 / bframes=6 / b-adapt=2 / b-pyramid / bframe-bias=0 / rc-lookahead=40 / lookahead-slices=0 / NTMzNTQ=uuDQuD2mJt9fsCf / scenecut=40 / hist-scenecut=0 / radl=0 / no-splice / no-intra-refresh / ctu=32 / min-cu-size=8 / no-rect / no-amp / max-tu-size=32 / tu-inter-depth=3 / tu-intra-depth=3 / limit-tu=4 / rdoq-level=2 / dynamic-rd=0.00 / no-ssim-rd / signhide / no-tskip / nr-intra=0 / nr-inter=0 / no-constrained-intra / no-strong-intra-smoothing / max-merge=4 / limit-refs=1 / limit-modes / me=3 / subme=4 / merange=25 / temporal-mvp / no-frame-dup / no-hme / weightp / weightb / no-analyze-src-pics / deblock=-3:-3 / no-sao / no-sao-non-deblock / rd=6 / selective-sao=0 / no-early-skip / rskip / no-fast-intra / no-tskip-fast / no-cu-lossless / b-intra / no-splitrd-skip / rdpenalty=0 / psy-rd=2.00 / psy-rdoq=1.00 / no-rd-refine / no-lossless / cbqpoffs=0 / crqpoffs=0 / rc=crf / crf=18.5 / qcomp=0.65 / qpstep=4 / stats-write=0 / stats-read=0 / vbv-maxrate=80000 / vbv-bufsize=80000 / vbv-init=0.9 / crf-max=0.0 / crf-min=0.0 / ipratio=1.40 / pbratio=1.30 / aq-mode=2 / aq-strength=0.85 / cutree / zone-count=0 / no-strict-cbr / qg-size=32 / no-rc-grain / qpmax=69 / qpmin=0 / no-const-vbv / sar=1 / overscan=0 / videoformat=5 / range=0 / colorprim=1 / transfer=1 / colormatrix=1 / chromaloc=0 / display-window=0 / cll=0,0 / min-luma=0 / max-luma=1023 / log2-max-poc-lsb=8 / vui-timing-info / vui-hrd-info / slices=1 / no-opt-qp-pps / no-opt-ref-list-length-pps / no-multi-pass-opt-rps / scenecut-bias=0.05 / hist-threshold=0.03 / no-opt-cu-delta-qp / no-aq-motion / no-hdr10 / no-hdr10-opt / no-dhdr10-opt / no-idr-recovery-sei / analysis-reuse-level=0 / analysis-save-reuse-level=0 / analysis-load-reuse-level=0 / scale-factor=0 / refine-intra=0 / refine-inter=0 / refine-mv=1 / refine-ctu-distortion=0 / no-limit-sao / ctu-info=0 / no-lowpass-dct / refine-analysis-type=0 / copy-pic=1 / max-ausize-factor=1.0 / no-dynamic-refine / no-single-sei / no-hevc-aq / no-svt / no-field / qp-adaptation-range=1.00 / no-scenecut-aware-qpconformance-window-offsets / right=0 / bottom=0 / NTMzNTQ= / decoder-max-rate=0

  35. Language : English

  36. Default : Yes

  37. Forced : No

  38. Color range : Limited

  39. Color primaries : BT.709

  40. Transfer characteristics : BT.709

  41. Matrix coefficients : BT.709

  42. Audio #1

  43. ID : 2

  44. Format : DTS XLL

  45. Format/Info : Digital Theater Systems

  46. Commercial name : DTS-HD Master Audio

  47. Codec ID : A_DTS

  48. Duration : 1 h 43 min

  49. Bit rate mode : Variable

  50. Bit rate : 4 438 kb/s

  51. Channel(s) : 6 channels

  52. Channel layout : C L R Ls Rs LFE

  53. Sampling rate : 48.0 kHz

  54. Frame rate : 93.750 FPS (512 SPF)

  55. Bit depth : 24 bits

  56. Compression mode : Lossless

  57. Stream size : 3.21 GiB (31%)

  58. Title : English DTS-HD Master Audio 5.1 @ 4438 kbps

  59. Language : English

  60. Default : Yes

  61. Forced : No

  62. Audio #2

  63. ID : 3

  64. Format : AC-3

  65. Format/Info : Audio Coding 3

  66. Commercial name : Dolby Digital

  67. Codec ID : A_AC3

  68. Duration : 1 h 43 min

  69. Bit rate mode : Constant

  70. Bit rate : 192 kb/s

  71. Channel(s) : 2 channels

  72. Channel layout : L R

  73. Sampling rate : 48.0 kHz

  74. Frame rate : 31.250 FPS (1536 SPF)

  75. Compression mode : Lossy

  76. Stream size : 142 MiB (1%)

  77. Title : English Dolby Digital Audio 2.0 @ 192 kbps Commentary

  78. Language : English

  79. Service kind : Complete Main

  80. Default : No

  81. Forced : No

  82. Text #1

  83. ID : 4

  84. Format : PGS

  85. Codec ID : S_HDMV/PGS

  86. Codec ID/Info : Picture based subtitle format used on BDs/HD-DVDs

  87. Duration : 1 h 41 min

  88. Bit rate : 27.3 kb/s

  89. Count of elements : 2132

  90. Stream size : 19.8 MiB (0%)

  91. Title : Eng/SUP

  92. Language : English

  93. Default : No

  94. Forced : No

  95. Text #2

  96. ID : 5

  97. Format : PGS

  98. Codec ID : S_HDMV/PGS

  99. Codec ID/Info : Picture based subtitle format used on BDs/HD-DVDs

  100. Duration : 1 h 42 min

  101. Bit rate : 16.4 kb/s

  102. Count of elements : 1676

  103. Stream size : 12.1 MiB (0%)

  104. Title : Cht/SUP 原盘繁体(HK)

  105. Language : Chinese

  106. Default : No

  107. Forced : No

  108. Text #3

  109. ID : 6

  110. Format : PGS

  111. Codec ID : S_HDMV/PGS

  112. Codec ID/Info : Picture based subtitle format used on BDs/HD-DVDs

  113. Duration : 1 h 42 min

  114. Bit rate : 18.4 kb/s

  115. Count of elements : 1676

  116. Stream size : 13.5 MiB (0%)

  117. Title : Cht/SUP 原盘繁体(TW)

  118. Language : Chinese

  119. Default : Yes

  120. Forced : No

  121. Text #4

  122. ID : 7

  123. Format : PGS

  124. Codec ID : S_HDMV/PGS

  125. Codec ID/Info : Picture based subtitle format used on BDs/HD-DVDs

  126. Duration : 1 h 43 min

  127. Bit rate : 70.1 kb/s

  128. Count of elements : 3369

  129. Stream size : 51.9 MiB (0%)

  130. Title : Eng/SUP Commentary

  131. Language : English

  132. Default : No

  133. Forced : No

  134. Menu

  135. 00:00:00.000 : en:第 01 章

  136. 00:04:20.260 : en:第 02 章

  137. 00:11:08.042 : en:第 03 章

  138. 00:14:49.889 : en:第 04 章

  139. 00:19:39.345 : en:第 05 章

  140. 00:22:42.778 : en:第 06 章

  141. 00:29:22.135 : en:第 07 章

  142. 00:34:33.780 : en:第 08 章

  143. 00:39:10.265 : en:第 09 章

  144. 00:44:59.113 : en:第 10 章

  145. 00:49:06.318 : en:第 11 章

  146. 00:54:23.260 : en:第 12 章

  147. 00:58:45.981 : en:第 13 章

  148. 01:04:09.054 : en:第 14 章

  149. 01:09:10.396 : en:第 15 章

  150. 01:17:46.203 : en:第 16 章

  151. 01:22:19.935 : en:第 17 章

  152. 01:27:10.434 : en:第 18 章

  153. 01:31:24.396 : en:第 19 章

  154. 01:40:24.018 : en:第 20 章


复制代码



文件下载


除非特别注明,本文『终极标靶[共2部合集][繁英多字幕].Hard.Target.1-2.1993-2016.BluRay.1080p.DTS-HD.MA5.1.x265.10bit-ALT 22.56GB』来源于互联网机器人自动抓取,非本站原创。 浮游电影网不对本文拥有版权,如有侵犯,请联系邮箱:fuyouu#yandex.com[#换成@]投诉。我们会在15个工作日内删除。 但烦请转载时请标明出处:“本文转载于『浮游电影网』,原文地址:https://www.fuyouu.com/21145.html

评论吧骚年!

发表你的见解   

昵称*

E-mail*(建议输入,以便收到博主回复的提示邮件)

验证码*

您可以使用eMule或eMule Mod(Windows)、aMule(Win、Linux、Mac)等软件下载eD2k链接。。
eMule收藏集(.emulecollection)文件是您选中的所有链接的列表文件。eMule可以直接下载它们。
按住SHIFT键选择可以选中多个选择框。
可用文件名和大小选择器来选择文件。
文件名选择器帮您根据文件名称或后缀来选择文件。不分大小写。
符号使用:
和:空格( )、+
不包含:-
或:|
转义:一对英文引号("");
匹配开头:^
匹配结尾:$
例如:
选中所有名称中包含有“eMule”或“0.49c”字眼,但不包含有“exe”字眼的:emule|0.49c -exe
选中所有名称的开头是“eMule”,结尾是“0.49c”的:^emule 0.49c$
选中所有名称中带有“eMule 0.49c”的(必须是“eMule 0.49c”,中间没有别的字符,不能是“eMule fake 0.49c”),需要转义:"emule 0.49c"
大小选择器帮您根据文件大小选择文件。