当前位置: 首页 >> 日韩电影 >> 妻子结婚了[中文字幕].My.Wife.Got.Married.2008.1080p.WEB-DL.AAC2.0.H.264-CTRLWEB 3.16GB >> 正文

妻子结婚了[中文字幕].My.Wife.Got.Married.2008.1080p.WEB-DL.AAC2.0.H.264-CTRLWEB 3.16GB

2022年04月05日 22:57:36     电影发布:来源于网络     电影分类:日韩电影     评论(0)    

妻子结婚了[中文字幕].My.Wife.Got.Married.2008.1080p.WEB DL.AAC2.0.H.264 CTRLWEB 3.16GB 爱情 喜剧 日韩电影  第1张

◎译 名 妻子结婚了 / 我老婆要嫁人 / My Wife Got Married

◎片 名 ??? ????

◎年 代 2008

◎产 地 韩国

◎类 别 喜剧 / 爱情

◎语 言 韩语

◎上映日期 2008-10-23(韩国)

◎IMDb链接 https://www.imdb.com/title/tt1329470/

◎豆瓣评分 6.5/10 (8598人评价)

◎豆瓣链接 https://movie.douban.com/subject/3318473/

◎片 长 119分钟

◎导 演 郑允秀 Yun-su Chong (id:1345904)

◎编 剧 宋惠真 Hye-jin Song (id:1345845)

郑允秀 Yun-su Chong (id:1345904)

◎演 员 金柱赫 Joo-hyuk Kim (id:1029145)

孙艺珍 Ye-jin Son (id:1014295)

朱相昱 Sang-wook Joo (id:1314243)

吴政世 Jeong-se Oh (id:1326212)

曹喆铉 Cheol-Hyeon Jo (id:1350648)

Steve M. Choe Steve M. Choe (id:1309588)

◎简 介

在别人眼里,仁雅(孙艺珍 饰)到目前为止的人生绝对都是完美的令人嫉妒。想法奇妙,又是狂热球迷的她却有一个大家公认的好好丈夫德勋(金柱赫 饰)来包容和宠溺。对于德勋而言,妻子是世界上最好的女人,拥有众多追求者的仁雅最后却选择了他,让他甘愿包揽所有的家务事,尊听妻子的话,给予她最大限度的自由。可这些无边无尽的包容却似乎还是抵不过妻子的好奇心。终于有一天,妻子颇为严肃的对德勋说,我想要再婚!听到这句话的德勋经历了从“愣住了”到反思自己的过程,最后不得不帮助妻子实现她的重婚计划……

本片改编自韩国第二届世界文学赏的获奖小说,上映后获得了多项大奖。

  1. ##### MediaInfo ######

  2. General

  3. Unique ID : 39596395964742938230279244473935862215 (0x1DC9FD0C3A504BFF205C150BBA8819C7)

  4. Complete name : My.Wife.Got.Married.2008.1080p.WEB-DL.AAC2.0.H.264-CTRLWEB.mkv

  5. Format : Matroska

  6. Format version : Version 4

  7. File size : 3.16 GiB

  8. Duration : 1 h 59 min

  9. Overall bit rate : 3 797 kb/s

  10. Encoded date : UTC 2022-04-04 13:50:29

  11. Writing application : mkvmerge v63.0.0 ('Everything') 64-bit

  12. Writing library : libebml v1.4.2 + libmatroska v1.6.4


  13. Video

  14. ID : 1

  15. Format : AVC

  16. Format/Info : Advanced Video Codec

  17. Format profile : [email protected]

  18. Format settings : CABAC / 1 Ref Frames

  19. Format settings, CABAC : Yes

  20. Format settings, Reference frames : 1 frame

  21. Format settings, GOP : M=1, N=60

  22. Codec ID : V_MPEG4/ISO/AVC

  23. Duration : 1 h 59 min

  24. Bit rate mode : Constant

  25. Bit rate : 3 668 kb/s

  26. Nominal bit rate : 4 000 kb/s

  27. Width : 1 920 pixels

  28. Height : 1 080 pixels

  29. Display aspect ratio : 16:9

  30. Frame rate mode : Constant

  31. Frame rate : 29.970 (30000/1001/53354) FPS

  32. Color space : YUV

  33. Chroma subsampling : 4:2:0

  34. Bit depth : 8 bits

  35. Scan type : Progressive

  36. Bits/(Pixel*Frame) : 0.059

  37. Stream size : 3.06 GiB (97%)

  38. Language : Korean

  39. Default : Yes

  40. Forced : No


  41. Audio

  42. ID : 2

  43. Format : AAC LC

  44. Format/Info : Advanced Audio Codec Low Complexity

  45. Codec ID : A_AAC-2

  46. Duration : 1 h 59 min

  47. Bit rate : 125 kb/s

  48. Channel(s) : 2 channels

  49. Channel layout : L R

  50. Sampling rate : 48.0 kHz

  51. Frame rate : 46.875 FPS (1024 SPF)

  52. Compression mode : Lossy

  53. Stream size : 107 MiB (3%)

  54. Language : Korean

  55. Default : Yes

  56. Forced : No


  57. Text

  58. ID : 3

  59. Format : UTF-8

  60. Codec ID : S_TEXT/UTF8

  61. Codec ID/Info : UTF-8 Plain Text

  62. Duration : 1 h 55 min

  63. Bit rate : 47 b/s

  64. Count of elements : 1693

  65. Stream size : 40.4 KiB (0%)

  66. Title : Traditional

  67. Language : Chinese

  68. Default : Yes

  69. Forced : No




复制代码



文件下载


除非特别注明,本文『妻子结婚了[中文字幕].My.Wife.Got.Married.2008.1080p.WEB-DL.AAC2.0.H.264-CTRLWEB 3.16GB』来源于互联网机器人自动抓取,非本站原创。 浮游电影网不对本文拥有版权,如有侵犯,请联系邮箱:fuyouu#yandex.com[#换成@]投诉。我们会在15个工作日内删除。 但烦请转载时请标明出处:“本文转载于『浮游电影网』,原文地址:https://www.fuyouu.com/21141.html

评论吧骚年!

发表你的见解   

昵称*

E-mail*(建议输入,以便收到博主回复的提示邮件)

验证码*

您可以使用eMule或eMule Mod(Windows)、aMule(Win、Linux、Mac)等软件下载eD2k链接。。
eMule收藏集(.emulecollection)文件是您选中的所有链接的列表文件。eMule可以直接下载它们。
按住SHIFT键选择可以选中多个选择框。
可用文件名和大小选择器来选择文件。
文件名选择器帮您根据文件名称或后缀来选择文件。不分大小写。
符号使用:
和:空格( )、+
不包含:-
或:|
转义:一对英文引号("");
匹配开头:^
匹配结尾:$
例如:
选中所有名称中包含有“eMule”或“0.49c”字眼,但不包含有“exe”字眼的:emule|0.49c -exe
选中所有名称的开头是“eMule”,结尾是“0.49c”的:^emule 0.49c$
选中所有名称中带有“eMule 0.49c”的(必须是“eMule 0.49c”,中间没有别的字符,不能是“eMule fake 0.49c”),需要转义:"emule 0.49c"
大小选择器帮您根据文件大小选择文件。