当前位置: 首页 >> 海外电影 >> 触不可及[中文字幕].Intouchables.2011.BluRay.1080p.DTS-HD.MA.5.1.x265.10bit-CTRLHD 7.17GB >> 正文

触不可及[中文字幕].Intouchables.2011.BluRay.1080p.DTS-HD.MA.5.1.x265.10bit-CTRLHD 7.17GB

2022年04月05日 22:56:03     电影发布:来源于网络     电影分类:海外电影     评论(0)    

触不可及[中文字幕].Intouchables.2011.BluRay.1080p.DTS HD.MA.5.1.x265.10bit CTRLHD 7.17GB 喜剧 剧情 海外电影  第1张

◎译 名 触不可及 / 闪亮人生(港) / 逆转人生(台) / 无法触碰 / 最佳拍档 / 不可触碰 / 不可触摸 / Untouchable / The Intouchables

◎片 名 Intouchables

◎年 代 2011

◎产 地 法国

◎类 别 剧情 / 喜剧

◎语 言 法语

◎上映日期 2011-11-02(法国)

◎IMDb链接 https://www.imdb.com/title/tt1675434/

◎豆瓣评分 9.3/10 (948002人评价)

◎豆瓣链接 https://movie.douban.com/subject/6786002/

◎片 长 112分钟

◎导 演 奥利维埃·纳卡什 Olivier Nakache (id:1001404)

埃里克·托莱达诺 Eric Toledano (id:1010884)

◎编 剧 奥利维埃·纳卡什 Olivier Nakache (id:1001404)

埃里克·托莱达诺 Eric Toledano (id:1010884)

◎演 员 弗朗索瓦·克鲁塞 Fran?ois Cluzet (id:1050210)

奥玛·希 Omar Sy (id:1220507)

安娜·勒尼 Anne Le Ny (id:1289597)

奥德雷·弗勒罗 Audrey Fleurot (id:1317872)

托马·索利韦尔 Thomas Solivéres (id:1318339)

让-弗朗索瓦·凯雷 Jean-Fran?ois Cayrey (id:1441823)

约瑟芬娜·德·摩 Joséphine de Meaux (id:1321531)

玛丽-洛尔·德库洛 Marie-Laure Descoureaux (id:1344279)

安托万·劳伦特 Antoine Laurent (id:1368240)

Caroline Bourg Caroline Bourg (id:1221427)

海迪·布奇纳法 Hedi Bouchenafa (id:1426874)

萨丽马特·卡马特 Salimata Kamate (id:1350643)

皮埃尔-罗兰·巴纳隆 Pierre-Laurent Barneron (id:1396107)

阿尔芭·贝露琪 Alba Ga?a Kraghede Bellugi (id:1318975)

艾米丽·卡恩 Emilie Caen (id:1327303)

克洛蒂尔德·莫莱特 Clotilde Mollet (id:1330183)

多萝特博里埃 Dorothée Brière (id:1353216)

扬·泽努 Yann Zenou (id:1336016)

尼古拉斯·杜瓦尔·艾达索夫斯基 Nicolas Duval-Adassovsky (id:1306936)

劳伦特·泽图恩 Laurent Zeitoun (id:1332588)

鲁多维科·艾奥迪 Ludovico Einaudi (id:1037404)

Mathieu Vadepied Mathieu Vadepied (id:1299769)

Fran?ois Emmanuelli Fran?ois Emmanuelli (id:1283192)

Mathieu Vadepied Mathieu Vadepied (id:1299769)

◎简 介

因为一次跳伞事故,白人富翁菲利普Philippe(弗朗索瓦·克鲁塞 Fran?ois Cluzet 饰)瘫痪在床,欲招聘一名全职陪护。由于薪酬高,应聘者云集,个个舌灿莲花,却无法打动他的心。直到黑人德希斯Driss(奥玛·赛 Omar Sy 饰)的出现才让他作出决定。德希斯刚从监狱出来,背负家庭重担,一心只想寻张辞退信以申领救济金,而且他明显对女助理的兴趣要远大于这份工作。但是菲利普还是一眼相中了这个小伙子。于是,德希斯开始了一个月的试用期。虽然舒适的豪宅环境让他倍感虚荣,但是他仍面临很多挑战:不仅要为菲利普作身体复健,还得给他洗浴、灌肠、拆信、穿丝袜等。起初,两人的思维方式与价值观大相径庭,但是,随着了解的不断深入,他们成为了朋友……

本片取材于真实事件,获2011年东京电影节最佳影片金麒麟奖,弗朗索瓦·克鲁塞与奥玛·赛分享影帝桂冠。

◎获奖情况 (共27项)

第70届金球奖 (2013)

电影类 最佳外语片(提名)

第25届欧洲电影奖 (2012)

观众选择奖(提名)

最佳影片(提名)

最佳男主角(提名)

最佳编剧(提名)

第36届日本电影学院奖 (2013)

最佳外语片

第37届法国凯撒电影奖 (2012)

最佳影片(提名)

最佳导演(提名)

第27届西班牙戈雅奖 (2013)

最佳欧洲电影

第56届意大利大卫奖 (2012)

最佳欧洲电影

第24届东京国际电影节 (2011)

主竞赛单元 最佳影片

主竞赛单元 最佳男演员

第84届美国国家评论协会奖 (2013)

五佳外语片

第18届美国评论家选择电影奖 (2013)

最佳外语片(提名)

第17届金卫星奖 (2012)

电影部门 剧情片最佳男主角(提名)

└──奥玛·希 (id:1220507)

电影部门 最佳外语片(提名)

电影部门 最佳原创剧本(提名)

第11届华盛顿影评人协会奖 (2012)

最佳外语片(提名)

第17届圣地亚哥影评人协会奖 (2012)

最佳外语片(提名)

第25届芝加哥影评人协会奖 (2012)

最佳外语片(提名)

第12届凤凰城影评人协会奖 (2012)

最佳外语片

第21届东南影评人协会奖 (2012)

最佳外语片

第6届豆瓣电影年度榜单 (2019)

2010s电影(提名)

第3届豆瓣电影鑫像奖 (2013)

鑫豆单元 最佳影片(外语)(提名)

鑫豆单元 最佳男演员(外语)(提名)

└──弗朗索瓦·克鲁塞 (id:1050210)

鑫豆单元 最佳喜剧片

鑫豆单元 最佳配乐(提名)

  1. ##### MediaInfo ######

  2. General

  3. Unique ID : 167296404303979372510113834856580309629 (0x7DDC1D8F0804A204165FDF24323EE27D)

  4. Complete name : Intouchables.2011.BluRay.1080p.DTS-HD.MA.5.1.x265.10bit-CTRLHD.mkv

  5. Format : Matroska

  6. Format version : Version 4

  7. File size : 7.17 GiB

  8. Duration : 1 h 52 min

  9. Overall bit rate mode : Variable

  10. Overall bit rate : 9 157 kb/s

  11. Encoded date : UTC 2022-04-04 18:21:29

  12. Writing application : mkvmerge v66.0.0 ('Josie') 64-bit

  13. Writing library : libebml v1.4.2 + libmatroska v1.6.4


  14. Video

  15. ID : 1

  16. Format : HEVC

  17. Format/Info : High Efficiency Video Coding

  18. Format profile : Main [email protected]@Main

  19. Codec ID : V_MPEGH/ISO/HEVC

  20. Duration : 1 h 52 min

  21. Bit rate : 7 269 kb/s

  22. Width : 1 920 pixels

  23. Height : 1 040 pixels

  24. Display aspect ratio : 1.85:1

  25. Frame rate mode : Constant

  26. Frame rate : 24.000 FPS

  27. Color space : YUV

  28. Chroma subsampling : 4:2:0

  29. Bit depth : 10 bits

  30. Bits/(Pixel*Frame) : 0.152

  31. Stream size : 5.69 GiB (79%)

  32. Writing library : x265 3.5+20-17839cc0d:[Windows][MSVC 1930][64 bit] 10bit

  33. Encoding settings : cpuid=533541111039 / frame-threads=4 / numa-pools=16 / wpp / no-pmode / pme / no-psnr / no-ssim / log-level=2 / input-csp=1 / input-res=1920x1040 / interlace=0 / total-frames=0 / level-idc=0 / high-tier=1 / uhd-bd=0 / ref=6 / no-allow-non-conformance / repeat-headers / annexb / no-aud / no-eob / no-eos / no-hrd / info / hash=0 / no-temporal-layers / no-open-gop / min-keyint=24 / keyint=250 / gop-lookahead=0 / bframes=8 / b-adapt=2 / b-pyramid / bframe-bias=0 / rc-lookahead=57 / lookahead-slices=6 / NTMzNTQ=uuDQuD2mJt9fsCf / scenecut=40 / no-hist-scenecut / radl=0 / no-splice / no-intra-refresh / ctu=64 / min-cu-size=8 / no-rect / no-amp / max-tu-size=32 / tu-inter-depth=1 / tu-intra-depth=1 / limit-tu=0 / rdoq-level=0 / dynamic-rd=0.00 / no-ssim-rd / signhide / no-tskip / nr-intra=0 / nr-inter=0 / no-constrained-intra / no-strong-intra-smoothing / max-merge=3 / limit-refs=1 / no-limit-modes / me=2 / subme=7 / merange=57 / temporal-mvp / no-frame-dup / no-hme / weightp / weightb / no-analyze-src-pics / deblock=0:0 / sao / no-sao-non-deblock / rd=4 / selective-sao=4 / early-skip / rskip / no-fast-intra / no-tskip-fast / no-cu-lossless / b-intra / no-splitrd-skip / rdpenalty=0 / psy-rd=2.00 / psy-rdoq=0.00 / no-rd-refine / no-lossless / cbqpoffs=0 / crqpoffs=0 / rc=crf / crf=16.0 / qcomp=0.60 / qpstep=4 / stats-write=0 / stats-read=0 / ipratio=1.40 / pbratio=1.30 / aq-mode=3 / aq-strength=1.00 / cutree / zone-count=0 / no-strict-cbr / qg-size=32 / no-rc-grain / qpmax=69 / qpmin=0 / no-const-vbv / sar=0 / overscan=0 / videoformat=5 / range=0 / colorprim=2 / transfer=2 / colormatrix=2 / chromaloc=0 / display-window=0 / cll=0,0 / min-luma=0 / max-luma=1023 / log2-max-poc-lsb=8 / vui-timing-info / vui-hrd-info / slices=1 / no-opt-qp-pps / no-opt-ref-list-length-pps / no-multi-pass-opt-rps / scenecut-bias=0.05 / hist-threshold=0.03 / no-opt-cu-delta-qp / aq-motion / no-hdr10 / no-hdr10-opt / no-dhdr10-opt / no-idr-recovery-sei / analysis-reuse-level=0 / analysis-save-reuse-level=0 / analysis-load-reuse-level=0 / scale-factor=0 / refine-intra=0 / refine-inter=0 / refine-mv=1 / refine-ctu-distortion=0 / no-limit-sao / ctu-info=0 / no-lowpass-dct / refine-analysis-type=0 / copy-pic=1 / max-ausize-factor=1.0 / no-dynamic-refine / no-single-sei / no-hevc-aq / no-svt / no-field / qp-adaptation-range=1.00 / scenecut-aware-qp=0conformance-window-offsets / right=0 / bottom=0 / NTMzNTQ= / decoder-max-rate=0 / no-vbv-live-multi-pass

  34. Default : Yes

  35. Forced : No


  36. Audio

  37. ID : 2

  38. Format : DTS XLL

  39. Format/Info : Digital Theater Systems

  40. Commercial name : DTS-HD Master Audio

  41. Codec ID : A_DTS

  42. Duration : 1 h 52 min

  43. Bit rate mode : Variable

  44. Bit rate : 1 804 kb/s

  45. Channel(s) : 6 channels

  46. Channel layout : C L R Ls Rs LFE

  47. Sampling rate : 48.0 kHz

  48. Frame rate : 93.750 FPS (512 SPF)

  49. Bit depth : 16 bits

  50. Compression mode : Lossless

  51. Stream size : 1.41 GiB (20%)

  52. Default : Yes

  53. Forced : No


  54. Text #1

  55. ID : 3

  56. Format : PGS

  57. Muxing mode : zlib

  58. Codec ID : S_HDMV/PGS

  59. Codec ID/Info : Picture based subtitle format used on BDs/HD-DVDs

  60. Duration : 1 h 51 min

  61. Bit rate : 34.6 kb/s

  62. Count of elements : 3226

  63. Stream size : 27.6 MiB (0%)

  64. Title : fr

  65. Language : French

  66. Default : No

  67. Forced : No


  68. Text #2

  69. ID : 4

  70. Format : PGS

  71. Muxing mode : zlib

  72. Codec ID : S_HDMV/PGS

  73. Codec ID/Info : Picture based subtitle format used on BDs/HD-DVDs

  74. Duration : 1 h 46 min

  75. Bit rate : 31.3 kb/s

  76. Count of elements : 3391

  77. Stream size : 23.9 MiB (0%)

  78. Title : chs

  79. Language : Chinese

  80. Default : Yes

  81. Forced : No


  82. Text #3

  83. ID : 5

  84. Format : PGS

  85. Muxing mode : zlib

  86. Codec ID : S_HDMV/PGS

  87. Codec ID/Info : Picture based subtitle format used on BDs/HD-DVDs

  88. Duration : 1 h 46 min

  89. Bit rate : 31.9 kb/s

  90. Count of elements : 3391

  91. Stream size : 24.4 MiB (0%)

  92. Title : cht

  93. Language : Chinese

  94. Default : No

  95. Forced : No


  96. Text #4

  97. ID : 6

  98. Format : PGS

  99. Muxing mode : zlib

  100. Codec ID : S_HDMV/PGS

  101. Codec ID/Info : Picture based subtitle format used on BDs/HD-DVDs

  102. Duration : 1 h 46 min

  103. Bit rate : 51.2 kb/s

  104. Count of elements : 3391

  105. Stream size : 39.1 MiB (1%)

  106. Title : chs & eng

  107. Language : Chinese

  108. Default : No

  109. Forced : No


  110. Text #5

  111. ID : 7

  112. Format : PGS

  113. Muxing mode : zlib

  114. Codec ID : S_HDMV/PGS

  115. Codec ID/Info : Picture based subtitle format used on BDs/HD-DVDs

  116. Duration : 1 h 46 min

  117. Bit rate : 51.8 kb/s

  118. Count of elements : 3391

  119. Stream size : 39.5 MiB (1%)

  120. Title : cht & eng

  121. Language : Chinese

  122. Default : No

  123. Forced : No


  124. Menu

  125. 00:00:00.000 : :第 01 章

  126. 00:07:26.000 : :第 02 章

  127. 00:12:54.375 : :第 03 章

  128. 00:18:56.667 : :第 04 章

  129. 00:26:51.958 : :第 05 章

  130. 00:30:50.708 : :第 06 章

  131. 00:37:26.208 : :第 07 章

  132. 00:42:05.667 : :第 08 章

  133. 00:48:45.333 : :第 09 章

  134. 00:54:26.250 : :第 10 章

  135. 00:58:02.708 : :第 11 章

  136. 01:04:06.833 : :第 12 章

  137. 01:14:27.042 : :第 13 章

  138. 01:21:39.833 : :第 14 章

  139. 01:29:26.125 : :第 15 章

  140. 01:35:56.875 : :第 16 章

  141. 01:40:22.042 : :第 17 章

  142. 01:45:12.542 : :第 18 章




复制代码



文件下载


除非特别注明,本文『触不可及[中文字幕].Intouchables.2011.BluRay.1080p.DTS-HD.MA.5.1.x265.10bit-CTRLHD 7.17GB』来源于互联网机器人自动抓取,非本站原创。 浮游电影网不对本文拥有版权,如有侵犯,请联系邮箱:fuyouu#yandex.com[#换成@]投诉。我们会在15个工作日内删除。 但烦请转载时请标明出处:“本文转载于『浮游电影网』,原文地址:https://www.fuyouu.com/21140.html

评论吧骚年!

发表你的见解   

昵称*

E-mail*(建议输入,以便收到博主回复的提示邮件)

验证码*

您可以使用eMule或eMule Mod(Windows)、aMule(Win、Linux、Mac)等软件下载eD2k链接。。
eMule收藏集(.emulecollection)文件是您选中的所有链接的列表文件。eMule可以直接下载它们。
按住SHIFT键选择可以选中多个选择框。
可用文件名和大小选择器来选择文件。
文件名选择器帮您根据文件名称或后缀来选择文件。不分大小写。
符号使用:
和:空格( )、+
不包含:-
或:|
转义:一对英文引号("");
匹配开头:^
匹配结尾:$
例如:
选中所有名称中包含有“eMule”或“0.49c”字眼,但不包含有“exe”字眼的:emule|0.49c -exe
选中所有名称的开头是“eMule”,结尾是“0.49c”的:^emule 0.49c$
选中所有名称中带有“eMule 0.49c”的(必须是“eMule 0.49c”,中间没有别的字符,不能是“eMule fake 0.49c”),需要转义:"emule 0.49c"
大小选择器帮您根据文件大小选择文件。