当前位置: 首页 >> 海外电影 >> 活人破胆2/解剖2[外挂简繁字幕] Anatomy.2.2003.SUBBED.1080p.BluRay.x264-GECKOS 7.65GB >> 正文

活人破胆2/解剖2[外挂简繁字幕] Anatomy.2.2003.SUBBED.1080p.BluRay.x264-GECKOS 7.65GB

2022年04月04日 23:33:42     电影发布:来源于网络     电影分类:海外电影     评论(0)    

活人破胆2/解剖2[外挂简繁字幕] Anatomy.2.2003.SUBBED.1080p.BluRay.x264 GECKOS 7.65GB 恐怖 惊悚 海外电影  第1张

◎译 名 活人破胆2 / 解剖2 / 解剖杀人狂2 / Anatomy 2

◎片 名 活人破胆2 Anatomie 2

◎年 代 2003

◎国 家 德国

◎类 别 惊悚 / 恐怖

◎语 言 德语 / 英语

◎上映日期 2003-02-06

◎IMDb评分 5.1/10 from 3,331 users

◎IMDb链接 http://www.imdb.com/title/tt0312358/

◎豆瓣评分 6.1/10 from 202 users

◎豆瓣链接 https://movie.douban.com/subject/1778383/

◎片 长 101 分钟

◎导 演 斯戴芬·卢佐维茨基

◎主 演 August Diehl

◎简 介

奋发向上的医学院学生宝拉(Franka Potente),好不容易获准进入颇负盛名的海德堡研究机构,她希望能继承祖父的衣钵,成为一名出色的医生。在上解剖课时,她发现解剖台上的尸体竟是她认识的人,便积极暗中调查尸体的来源,发现有一个以残酷手法研究活人的神秘社团在学校活动,而班上的同学也一一离奇失踪,她决定继续挖掘真相。

所谓人造肌,类似骷髅会的反医誓组织,对医学道德的探讨,的确不失为恐怖,人性道德的恐怖

  1. Video

  2. ID : 1

  3. Format : AVC

  4. Format/Info : Advanced Video Codec

  5. Format profile : [email protected]

  6. Format settings, CABAC : Yes

  7. Format settings, ReFrames : 5 frames

  8. Codec ID : V_MPEG4/ISO/AVC

  9. Duration : 1h 41mn

  10. Bit rate : 9 304 Kbps

  11. Width : 1 920 pixels

  12. Height : 800 pixels

  13. Display aspect ratio : 2.40:1

  14. Frame rate mode : Constant

  15. Frame rate : 23.976 (24000/1001) fps

  16. Color space : YUV

  17. Chroma subsampling : 4:2:0

  18. Bit depth : 8 bits

  19. Scan type : Progressive

  20. Bits/(Pixel*Frame) : 0.253

  21. Stream size : 6.43 GiB (84%)

  22. Writing library : x264 core 130 r2273 b3065e6

  23. Encoding settings : cabac=1 / ref=5 / deblock=1:0:0 / analyse=0x3:0x133 / me=umh / subme=7 / psy=1 / psy_rd=1.00:0.00 / mixed_ref=1 / me_range=16 / chroma_me=1 / trellis=1 / 8x8dct=1 / cqm=0 / deadzone=21,11 / fast_pskip=0 / chroma_qp_offset=-2 / threads=18 / lookahead_threads=3 / sliced_threads=0 / nr=0 / decimate=1 / interlaced=0 / NTMzNTQ= / bluray_compat=0 / constrained_intra=0 / bframes=3 / b_pyramid=2 / b_adapt=1 / b_bias=0 / direct=1 / weightb=1 / open_gop=0 / weightp=2 / keyint=250 / keyint_min=23 / NTMzNTQ=uuDQuD2mJt9fsCf / scenecut=40 / intra_refresh=0 / rc_lookahead=40 / rc=2pass / mbtree=1 / bitrate=9304 / ratetol=1.0 / qcomp=0.60 / qpmin=0 / qpmax=69 / qpstep=4 / cplxblur=20.0 / qblur=0.5 / NTMzNTQ=LmsMAP37EqsCpk / ip_ratio=1.40 / aq=1:1.00

  24. Language : English

  25. Default : Yes

  26. Forced : No


  27. Audio

  28. ID : 2

  29. Format : DTS

  30. Format/Info : Digital Theater Systems

  31. Mode : 16

  32. Format settings, Endianness : Big

  33. Codec ID : A_DTS

  34. Duration : 1h 41mn

  35. Bit rate mode : Constant

  36. Bit rate : 1 509 Kbps

  37. Channel(s) : 6 channels

  38. Channel positions : Front: L C R, Side: L R, LFE

  39. Sampling rate : 48.0 KHz

  40. Frame rate : 93.750 fps (512 spf)

  41. Bit depth : 24 bits

  42. Compression mode : Lossy

  43. Stream size : 1.07 GiB (14%)

  44. Default : Yes

  45. Forced : No

复制代码

活人破胆2/解剖2[外挂简繁字幕] Anatomy.2.2003.SUBBED.1080p.BluRay.x264 GECKOS 7.65GB 恐怖 惊悚 海外电影  第2张 活人破胆2/解剖2[外挂简繁字幕] Anatomy.2.2003.SUBBED.1080p.BluRay.x264 GECKOS 7.65GB 恐怖 惊悚 海外电影  第3张 活人破胆2/解剖2[外挂简繁字幕] Anatomy.2.2003.SUBBED.1080p.BluRay.x264 GECKOS 7.65GB 恐怖 惊悚 海外电影  第4张 活人破胆2/解剖2[外挂简繁字幕] Anatomy.2.2003.SUBBED.1080p.BluRay.x264 GECKOS 7.65GB 恐怖 惊悚 海外电影  第5张 活人破胆2/解剖2[外挂简繁字幕] Anatomy.2.2003.SUBBED.1080p.BluRay.x264 GECKOS 7.65GB 恐怖 惊悚 海外电影  第6张 活人破胆2/解剖2[外挂简繁字幕] Anatomy.2.2003.SUBBED.1080p.BluRay.x264 GECKOS 7.65GB 恐怖 惊悚 海外电影  第7张



文件下载


除非特别注明,本文『活人破胆2/解剖2[外挂简繁字幕] Anatomy.2.2003.SUBBED.1080p.BluRay.x264-GECKOS 7.65GB』来源于互联网机器人自动抓取,非本站原创。 浮游电影网不对本文拥有版权,如有侵犯,请联系邮箱:fuyouu#yandex.com[#换成@]投诉。我们会在15个工作日内删除。 但烦请转载时请标明出处:“本文转载于『浮游电影网』,原文地址:https://www.fuyouu.com/21120.html

评论吧骚年!

发表你的见解   

昵称*

E-mail*(建议输入,以便收到博主回复的提示邮件)

验证码*

您可以使用eMule或eMule Mod(Windows)、aMule(Win、Linux、Mac)等软件下载eD2k链接。。
eMule收藏集(.emulecollection)文件是您选中的所有链接的列表文件。eMule可以直接下载它们。
按住SHIFT键选择可以选中多个选择框。
可用文件名和大小选择器来选择文件。
文件名选择器帮您根据文件名称或后缀来选择文件。不分大小写。
符号使用:
和:空格( )、+
不包含:-
或:|
转义:一对英文引号("");
匹配开头:^
匹配结尾:$
例如:
选中所有名称中包含有“eMule”或“0.49c”字眼,但不包含有“exe”字眼的:emule|0.49c -exe
选中所有名称的开头是“eMule”,结尾是“0.49c”的:^emule 0.49c$
选中所有名称中带有“eMule 0.49c”的(必须是“eMule 0.49c”,中间没有别的字符,不能是“eMule fake 0.49c”),需要转义:"emule 0.49c"
大小选择器帮您根据文件大小选择文件。