当前位置: 首页 >> 欧美电影 >> 解剖/活人破胆[外挂简繁字幕]Anatomie.2000.GERMAN.1080p.BluRay.x264-HANDJOB 8.00GB >> 正文

解剖/活人破胆[外挂简繁字幕]Anatomie.2000.GERMAN.1080p.BluRay.x264-HANDJOB 8.00GB

2022年04月04日 23:31:04     电影发布:来源于网络     电影分类:欧美电影     评论(0)    

解剖/活人破胆[外挂简繁字幕]Anatomie.2000.GERMAN.1080p.BluRay.x264 HANDJOB 8.00GB 恐怖 惊悚 欧美电影  第1张

◎译 名 解剖 / Anatomy / 活人破胆 / 解剖杀人狂

◎片 名 Anatomie

◎年 代 2000

◎产 地 德国

◎类 别 惊悚 / 恐怖

◎语 言 德语 / 拉丁语

◎上映日期 2000-02-03(德国)

◎IMDb评分 6.1/10 from 11600 users

◎IMDb链接 https://www.imdb.com/title/tt0187696

◎豆瓣评分 6.5/10 from 1006 users

◎豆瓣链接 https://movie.douban.com/subject/1307913/

◎片 长 103 分钟

◎导 演 斯戴芬·卢佐维茨基 Stefan Ruzowitzky

◎编 剧 斯戴芬·卢佐维茨基 Stefan Ruzowitzky

◎主 演 弗朗卡·波滕特 Franka Potente

本诺·菲尔曼 Benno Fürmann

安娜·卢斯 Anna Loos

塞巴斯蒂安·布隆贝格 Sebastian Blomberg

霍尔格·施佩克汉 Holger Speckhahn

特劳戈特·布雷 Traugott Buhre

奥利弗·瓦努克 Oliver Wnuk

阿尔恩特·施韦林·索瑞 Arndt Schwering-Sohnrey

安德烈亚斯·金特 Andreas Günther

吕迪格·福格勒 Rüdiger Vogler

维尔纳·迪塞尔 Werner Dissel

格纳迪·文格洛夫 Gennadi Vengerov

◎标 签 德国 | 恐怖 | 惊悚 | 解剖 | 德国电影 | 2000 | 恐怖片 | 医德

◎简 介

奋发向上的医学院学生宝拉(FrankaPotente),好不容易获准进入颇负盛名的海德堡研究机构,她希望能继承祖父的衣钵,成为一名出色的医生。在上解剖课时,她发现解剖台上的尸体竟是她认识的人,便积极暗中调查尸体的来源,发现有一个以残酷手法研究活人的神秘社团在学校活动,而班上的同学也一一离奇失踪,她决定继续挖掘真相。

  1. Video

  2. ID : 1

  3. Format : AVC

  4. Format/Info : Advanced Video Codec

  5. Format profile : [email protected]

  6. Format settings : CABAC / 5 Ref Frames

  7. Format settings, CABAC : Yes

  8. Format settings, Reference frames : 5 frames

  9. Codec ID : V_MPEG4/ISO/AVC

  10. Duration : 1 h 39 min

  11. Bit rate : 10.5 Mb/s

  12. Width : 1 920 pixels

  13. Height : 812 pixels

  14. Display aspect ratio : 2.35:1

  15. Frame rate mode : Constant

  16. Frame rate : 23.976 (24000/1001/53354) FPS

  17. Color space : YUV

  18. Chroma subsampling : 4:2:0

  19. Bit depth : 8 bits

  20. Scan type : Progressive

  21. Bits/(Pixel*Frame) : 0.280

  22. Stream size : 7.26 GiB (91%)

  23. Writing library : x264 core 148 r2643 5c65704

  24. Encoding settings : cabac=1 / ref=5 / deblock=1:-2:-2 / analyse=0x3:0x133 / me=umh / subme=9 / psy=1 / psy_rd=1.00:0.00 / mixed_ref=1 / me_range=24 / chroma_me=1 / trellis=2 / 8x8dct=1 / cqm=0 / deadzone=21,11 / fast_pskip=0 / chroma_qp_offset=-2 / threads=12 / lookahead_threads=1 / sliced_threads=0 / nr=0 / decimate=1 / interlaced=0 / NTMzNTQ= / bluray_compat=0 / constrained_intra=0 / bframes=6 / b_pyramid=2 / b_adapt=2 / b_bias=0 / direct=3 / weightb=1 / open_gop=0 / weightp=2 / keyint=240 / keyint_min=24 / NTMzNTQ=uuDQuD2mJt9fsCf / scenecut=40 / intra_refresh=0 / rc_lookahead=50 / rc=crf / mbtree=0 / crf=21.0 / qcomp=0.60 / qpmin=0 / qpmax=69 / qpstep=4 / vbv_maxrate=62500 / vbv_bufsize=78125 / crf_max=0.0 / nal_hrd=none / filler=0 / NTMzNTQ=LmsMAP37EqsCpk / ip_ratio=1.40 / pb_ratio=1.30 / aq=3:0.80

  25. Default : Yes

  26. Forced : No

  27. Color range : Limited

  28. Color primaries : BT.709

  29. Transfer characteristics : BT.709

  30. Matrix coefficients : BT.709


  31. Audio #1

  32. ID : 2

  33. Format : AC-3

  34. Format/Info : Audio Coding 3

  35. Commercial name : Dolby Digital

  36. Codec ID : A_AC3

  37. Duration : 1 h 39 min

  38. Bit rate mode : Constant

  39. Bit rate : 384 kb/s

  40. Channel(s) : 6 channels

  41. Channel layout : L R C LFE Ls Rs

  42. Sampling rate : 48.0 kHz

  43. Frame rate : 31.250 FPS (1536 SPF)

  44. Compression mode : Lossy

  45. Delay relative to video : -5 ms

  46. Stream size : 273 MiB (3%)

  47. Language : German

  48. Service kind : Complete Main

  49. Default : Yes

  50. Forced : No


  51. Audio #2

  52. ID : 3

  53. Format : AC-3

  54. Format/Info : Audio Coding 3

  55. Commercial name : Dolby Digital

  56. Codec ID : A_AC3

  57. Duration : 1 h 39 min

  58. Bit rate mode : Constant

  59. Bit rate : 640 kb/s

  60. Channel(s) : 6 channels

  61. Channel layout : L R C LFE Ls Rs

  62. Sampling rate : 48.0 kHz

  63. Frame rate : 31.250 FPS (1536 SPF)

  64. Compression mode : Lossy

  65. Delay relative to video : -5 ms

  66. Stream size : 455 MiB (6%)

  67. Title : English Dub

  68. Language : English

  69. Service kind : Complete Main

  70. Default : No

  71. Forced : No


  72. Text #1

  73. ID : 4

  74. Format : UTF-8

  75. Codec ID : S_TEXT/UTF8

  76. Codec ID/Info : UTF-8 Plain Text

  77. Duration : 1 h 38 min

  78. Bit rate : 51 b/s

  79. Count of elements : 1055

  80. Stream size : 37.1 KiB (0%)

  81. Title : Full

  82. Language : English

  83. Default : Yes

  84. Forced : No


  85. Text #2

  86. ID : 5

  87. Format : PGS

  88. Muxing mode : zlib

  89. Codec ID : S_HDMV/PGS

  90. Codec ID/Info : Picture based subtitle format used on BDs/HD-DVDs

  91. Duration : 1 h 38 min

  92. Bit rate : 31.5 kb/s

  93. Count of elements : 2109

  94. Stream size : 22.2 MiB (0%)

  95. Language : English

  96. Default : No

  97. Forced : No


  98. Text #3

  99. ID : 6

  100. Format : PGS

  101. Muxing mode : zlib

  102. Codec ID : S_HDMV/PGS

  103. Codec ID/Info : Picture based subtitle format used on BDs/HD-DVDs

  104. Duration : 1 h 37 min

  105. Bit rate : 30.8 kb/s

  106. Count of elements : 2079

  107. Stream size : 21.5 MiB (0%)

  108. Language : French

  109. Default : No

  110. Forced : No


  111. Text #4

  112. ID : 7

  113. Format : PGS

  114. Muxing mode : zlib

  115. Codec ID : S_HDMV/PGS

  116. Codec ID/Info : Picture based subtitle format used on BDs/HD-DVDs

  117. Duration : 1 h 37 min

  118. Bit rate : 30.0 kb/s

  119. Count of elements : 2099

  120. Stream size : 21.0 MiB (0%)

  121. Language : Spanish

  122. Default : No

  123. Forced : No


  124. Menu

  125. 00:00:00.000 : :Start

  126. 00:02:13.342 : :Paula Henning

  127. 00:06:58.043 : :\"Where am I?\"

  128. 00:09:34.240 : :A textbook case

  129. 00:13:26.931 : :The anatomy lab

  130. 00:16:59.685 : :Getting to know you

  131. 00:21:00.885 : :The dissecting room

  132. 00:23:22.026 : :Professor Grombek

  133. 00:24:36.558 : :Genuine human speciman

  134. 00:27:33.110 : :An old acquaintance

  135. 00:30:55.729 : :Blood samples

  136. 00:32:40.208 : :Tissue samples

  137. 00:37:09.602 : :Girl talk

  138. 00:40:14.495 : :Anti-Hippocrates Society

  139. 00:41:40.498 : :Promidal

  140. 00:46:36.711 : :A warning

  141. 00:49:48.903 : :Anatomy test

  142. 00:51:19.076 : :Hein

  143. 00:52:40.449 : :Over between them

  144. 00:56:40.522 : :Morgue lockout

  145. 01:02:18.235 : :A present

  146. 01:05:27.799 : :\"Gretchen\'s on table 3.\"

  147. 01:08:34.944 : :The Lodge

  148. 01:12:32.682 : :Lodge meeting

  149. 01:16:43.933 : :Comforting Paula

  150. 01:20:23.485 : :The Specimen Room

  151. 01:22:48.797 : :Oliver the historian

  152. 01:31:31.778 : :Shock ending

复制代码

解剖/活人破胆[外挂简繁字幕]Anatomie.2000.GERMAN.1080p.BluRay.x264 HANDJOB 8.00GB 恐怖 惊悚 欧美电影  第2张 解剖/活人破胆[外挂简繁字幕]Anatomie.2000.GERMAN.1080p.BluRay.x264 HANDJOB 8.00GB 恐怖 惊悚 欧美电影  第3张 解剖/活人破胆[外挂简繁字幕]Anatomie.2000.GERMAN.1080p.BluRay.x264 HANDJOB 8.00GB 恐怖 惊悚 欧美电影  第4张


文件下载


除非特别注明,本文『解剖/活人破胆[外挂简繁字幕]Anatomie.2000.GERMAN.1080p.BluRay.x264-HANDJOB 8.00GB』来源于互联网机器人自动抓取,非本站原创。 浮游电影网不对本文拥有版权,如有侵犯,请联系邮箱:fuyouu#yandex.com[#换成@]投诉。我们会在15个工作日内删除。 但烦请转载时请标明出处:“本文转载于『浮游电影网』,原文地址:https://www.fuyouu.com/21119.html

评论吧骚年!

发表你的见解   

昵称*

E-mail*(建议输入,以便收到博主回复的提示邮件)

验证码*

您可以使用eMule或eMule Mod(Windows)、aMule(Win、Linux、Mac)等软件下载eD2k链接。。
eMule收藏集(.emulecollection)文件是您选中的所有链接的列表文件。eMule可以直接下载它们。
按住SHIFT键选择可以选中多个选择框。
可用文件名和大小选择器来选择文件。
文件名选择器帮您根据文件名称或后缀来选择文件。不分大小写。
符号使用:
和:空格( )、+
不包含:-
或:|
转义:一对英文引号("");
匹配开头:^
匹配结尾:$
例如:
选中所有名称中包含有“eMule”或“0.49c”字眼,但不包含有“exe”字眼的:emule|0.49c -exe
选中所有名称的开头是“eMule”,结尾是“0.49c”的:^emule 0.49c$
选中所有名称中带有“eMule 0.49c”的(必须是“eMule 0.49c”,中间没有别的字符,不能是“eMule fake 0.49c”),需要转义:"emule 0.49c"
大小选择器帮您根据文件大小选择文件。