当前位置: 首页 >> 欧美电影 >> 承包商[外挂中文字幕].The.Contractor.2022.1080p.AMZN.WEBRip.DDP5.1.x264-CM 6.51GB >> 正文

承包商[外挂中文字幕].The.Contractor.2022.1080p.AMZN.WEBRip.DDP5.1.x264-CM 6.51GB

2022年04月04日 23:17:22     电影发布:来源于网络     电影分类:欧美电影     评论(0)    

承包商[外挂中文字幕].The.Contractor.2022.1080p.AMZN.WEBRip.DDP5.1.x264 CM 6.51GB 惊悚 动作 欧美电影  第1张

◎译 名 承包商 / 救命缉约(台) / 暴力行动 / 契约者 / Violence of Action

◎片 名 The Contractor

◎年 代 2022

◎产 地 美国

◎类 别 动作 / 惊悚

◎语 言 英语

◎上映日期 2022-04-01(美国)

◎IMDb链接 https://www.imdb.com/title/tt10323676/

◎豆瓣链接 https://movie.douban.com/subject/33442722/

◎片 长 103分钟

◎导 演 塔里克·萨利赫 Tarik Saleh (id:1296510)

◎编 剧 J·P·戴维斯 J.P. Davis (id:1314254)

◎演 员 克里斯·派恩 Chris Pine (id:1053621)

基弗·萨瑟兰 Kiefer Sutherland (id:1053575)

本·福斯特 Ben Foster (id:1040512)

吉莉安·雅各布斯 Gillian Jacobs (id:1274992)

埃迪·马森 Eddie Marsan (id:1291072)

泰特·弗莱彻 Tait Fletcher (id:1389967)

弗罗里安·穆特鲁 Florian Munteanu (id:1403708)

法瑞斯·法瑞斯 Fares Fares (id:1045340)

尼娜·霍斯 Nina Hoss (id:1009688)

J.D.普拉多 J.D. Pardo (id:1179331)

阿蜜拉·卡萨 Amira Casar (id:1045238)

亚力克桑杰·麦沃洛夫 Alexej Manvelov (id:1353382)

马修·马什 Matthew Marsh (id:1120042)

泰娜·拉欣 Tyner Rushing (id:1395028)

帕蒂·舍尔哈斯 Patti Schellhaas (id:1395930)

乔治·皮斯特拉努 George Pistereanu (id:1367289)

科里·斯科特·艾伦 Cory Scott Allen (id:1360689)

里贾纳·陈婷 Regina Ting Chen (id:1357977)

蒂莫西·卡尔 Timothy Carr (id:1392730)

金 King (id:1334780)

山德·托马斯 Sander Thomas (id:1398085)

杰克琳·怀特 Jaclyn White (id:1440513)

◎简 介

神秘契约背后隐藏的危机,原来是一场精心策划的致命阴谋。身处异国孤军奋战,该如何杀出重围、活着回家?

故事讲述被迫从海军陆战队退伍后,詹姆斯·里德(克里斯·派恩 饰)加入了一个准军事组织来维持生计。第一次执行任务时,里德就在东欧遭到追捕。他必须努力活到足够长的时间才能回家,并找出背叛他的人的真正动机。

  1. Video

  2. ID : 1

  3. Format : AVC

  4. Format/Info : Advanced Video Codec

  5. Format profile : [email protected]

  6. Format settings : CABAC / 4 Ref Frames

  7. Format settings, CABAC : Yes

  8. Format settings, Reference frames : 4 frames

  9. Codec ID : V_MPEG4/ISO/AVC

  10. Duration : 1 h 43 min

  11. Bit rate mode : Constant

  12. Bit rate : 8 347 kb/s

  13. Nominal bit rate : 10 000 kb/s

  14. Width : 1 920 pixels

  15. Height : 800 pixels

  16. Display aspect ratio : 2.40:1

  17. Frame rate mode : Constant

  18. Frame rate : 23.976 (24000/1001/53354) FPS

  19. Color space : YUV

  20. Chroma subsampling : 4:2:0

  21. Bit depth : 8 bits

  22. Scan type : Progressive

  23. Bits/(Pixel*Frame) : 0.227

  24. Stream size : 6.04 GiB (93%)

  25. Default : Yes

  26. Forced : No

  27. Color range : Limited

  28. Color primaries : BT.709

  29. Transfer characteristics : BT.709

  30. Matrix coefficients : BT.709


  31. Audio

  32. ID : 2

  33. Format : E-AC-3

  34. Format/Info : Enhanced AC-3

  35. Commercial name : Dolby Digital Plus

  36. Codec ID : A_EAC3

  37. Duration : 1 h 43 min

  38. Bit rate mode : Constant

  39. Bit rate : 640 kb/s

  40. Channel(s) : 6 channels

  41. Channel layout : L R C LFE Ls Rs

  42. Sampling rate : 48.0 kHz

  43. Frame rate : 31.250 FPS (1536 SPF)

  44. Compression mode : Lossy

  45. Stream size : 474 MiB (7%)

  46. Title : English

  47. Language : English

  48. Service kind : Complete Main

  49. Default : No

  50. Forced : No


  51. Text #1

  52. ID : 3

  53. Format : UTF-8

  54. Codec ID : S_TEXT/UTF8

  55. Codec ID/Info : UTF-8 Plain Text

  56. Duration : 1 h 42 min

  57. Bit rate : 29 b/s

  58. Count of elements : 643

  59. Stream size : 22.2 KiB (0%)

  60. Title : Danish

  61. Language : Danish

  62. Default : No

  63. Forced : No


  64. Text #2

  65. ID : 4

  66. Format : UTF-8

  67. Codec ID : S_TEXT/UTF8

  68. Codec ID/Info : UTF-8 Plain Text

  69. Duration : 1 h 42 min

  70. Bit rate : 27 b/s

  71. Count of elements : 624

  72. Stream size : 20.5 KiB (0%)

  73. Title : Dutch

  74. Language : Dutch

  75. Default : No

  76. Forced : No


  77. Text #3

  78. ID : 5

  79. Format : UTF-8

  80. Codec ID : S_TEXT/UTF8

  81. Codec ID/Info : UTF-8 Plain Text

  82. Duration : 1 h 36 min

  83. Bit rate : 42 b/s

  84. Count of elements : 1020

  85. Stream size : 30.2 KiB (0%)

  86. Title : English [SDH]

  87. Language : English

  88. Default : No

  89. Forced : No


  90. Text #4

  91. ID : 6

  92. Format : UTF-8

  93. Codec ID : S_TEXT/UTF8

  94. Codec ID/Info : UTF-8 Plain Text

  95. Duration : 1 h 36 min

  96. Bit rate : 42 b/s

  97. Count of elements : 1011

  98. Stream size : 29.9 KiB (0%)

  99. Title : English

  100. Language : English

  101. Default : No

  102. Forced : No


  103. Text #5

  104. ID : 7

  105. Format : UTF-8

  106. Codec ID : S_TEXT/UTF8

  107. Codec ID/Info : UTF-8 Plain Text

  108. Duration : 1 h 42 min

  109. Bit rate : 29 b/s

  110. Count of elements : 665

  111. Stream size : 22.3 KiB (0%)

  112. Title : Finnish

  113. Language : Finnish

  114. Default : No

  115. Forced : No


  116. Text #6

  117. ID : 8

  118. Format : UTF-8

  119. Codec ID : S_TEXT/UTF8

  120. Codec ID/Info : UTF-8 Plain Text

  121. Duration : 1 h 42 min

  122. Bit rate : 30 b/s

  123. Count of elements : 654

  124. Stream size : 22.7 KiB (0%)

  125. Title : French

  126. Language : French

  127. Default : No

  128. Forced : No


  129. Text #7

  130. ID : 9

  131. Format : UTF-8

  132. Codec ID : S_TEXT/UTF8

  133. Codec ID/Info : UTF-8 Plain Text

  134. Duration : 1 h 42 min

  135. Bit rate : 30 b/s

  136. Count of elements : 657

  137. Stream size : 23.1 KiB (0%)

  138. Title : Italian

  139. Language : Italian

  140. Default : No

  141. Forced : No


  142. Text #8

  143. ID : 10

  144. Format : UTF-8

  145. Codec ID : S_TEXT/UTF8

  146. Codec ID/Info : UTF-8 Plain Text

  147. Duration : 1 h 42 min

  148. Bit rate : 30 b/s

  149. Count of elements : 647

  150. Stream size : 22.7 KiB (0%)

  151. Title : Norwegian (Bokm?l)

  152. Language : Norwegian Bokmal

  153. Default : No

  154. Forced : No


  155. Text #9

  156. ID : 11

  157. Format : UTF-8

  158. Codec ID : S_TEXT/UTF8

  159. Codec ID/Info : UTF-8 Plain Text

  160. Duration : 1 h 42 min

  161. Bit rate : 31 b/s

  162. Count of elements : 647

  163. Stream size : 23.9 KiB (0%)

  164. Title : Swedish

  165. Language : Swedish

  166. Default : No

  167. Forced : No


  168. Menu

  169. 00:00:00.000 : en:Amazon Original

  170. 00:00:06.000 : en:Studio Logo

  171. 00:00:33.000 : en:Scene 3

  172. 00:01:28.000 : en:Scene 4

  173. 00:03:33.000 : en:Scene 5

  174. 00:08:39.000 : en:Scene 6

  175. 00:10:41.000 : en:Scene 7

  176. 00:15:12.000 : en:Scene 8

  177. 00:21:12.000 : en:Scene 9

  178. 00:22:47.000 : en:Scene 10

  179. 00:26:26.000 : en:Scene 11

  180. 00:28:26.000 : en:Scene 12

  181. 00:30:25.000 : en:Scene 13

  182. 00:33:31.000 : en:Scene 14

  183. 00:44:02.000 : en:Scene 15

  184. 00:47:44.000 : en:Scene 16

  185. 00:49:44.000 : en:Scene 17

  186. 00:55:08.000 : en:Scene 18

  187. 00:58:06.000 : en:Scene 19

  188. 01:05:49.000 : en:Scene 20

  189. 01:12:15.000 : en:Scene 21

  190. 01:21:02.000 : en:Scene 22

  191. 01:22:36.000 : en:Scene 23

  192. 01:26:48.000 : en:Scene 24

  193. 01:30:58.000 : en:Scene 25

  194. 01:36:42.000 : en:Scene 26

  195. 01:37:43.000 : en:End Credits

复制代码

承包商[外挂中文字幕].The.Contractor.2022.1080p.AMZN.WEBRip.DDP5.1.x264 CM 6.51GB 惊悚 动作 欧美电影  第2张 承包商[外挂中文字幕].The.Contractor.2022.1080p.AMZN.WEBRip.DDP5.1.x264 CM 6.51GB 惊悚 动作 欧美电影  第3张 承包商[外挂中文字幕].The.Contractor.2022.1080p.AMZN.WEBRip.DDP5.1.x264 CM 6.51GB 惊悚 动作 欧美电影  第4张



文件下载


除非特别注明,本文『承包商[外挂中文字幕].The.Contractor.2022.1080p.AMZN.WEBRip.DDP5.1.x264-CM 6.51GB』来源于互联网机器人自动抓取,非本站原创。 浮游电影网不对本文拥有版权,如有侵犯,请联系邮箱:fuyouu#yandex.com[#换成@]投诉。我们会在15个工作日内删除。 但烦请转载时请标明出处:“本文转载于『浮游电影网』,原文地址:https://www.fuyouu.com/21118.html

评论吧骚年!

发表你的见解   

昵称*

E-mail*(建议输入,以便收到博主回复的提示邮件)

验证码*

您可以使用eMule或eMule Mod(Windows)、aMule(Win、Linux、Mac)等软件下载eD2k链接。。
eMule收藏集(.emulecollection)文件是您选中的所有链接的列表文件。eMule可以直接下载它们。
按住SHIFT键选择可以选中多个选择框。
可用文件名和大小选择器来选择文件。
文件名选择器帮您根据文件名称或后缀来选择文件。不分大小写。
符号使用:
和:空格( )、+
不包含:-
或:|
转义:一对英文引号("");
匹配开头:^
匹配结尾:$
例如:
选中所有名称中包含有“eMule”或“0.49c”字眼,但不包含有“exe”字眼的:emule|0.49c -exe
选中所有名称的开头是“eMule”,结尾是“0.49c”的:^emule 0.49c$
选中所有名称中带有“eMule 0.49c”的(必须是“eMule 0.49c”,中间没有别的字符,不能是“eMule fake 0.49c”),需要转义:"emule 0.49c"
大小选择器帮您根据文件大小选择文件。