当前位置: 首页 >> 港台电影 >> 那个我最亲爱的陌生人[国语音轨/中文字幕].Synapses.2019.CHINESE.1080p.NF.WEBRip.DDP5.1.x264-PLB 2.47GB >> 正文

那个我最亲爱的陌生人[国语音轨/中文字幕].Synapses.2019.CHINESE.1080p.NF.WEBRip.DDP5.1.x264-PLB 2.47GB

2022年04月04日 15:43:59     电影发布:来源于网络     电影分类:港台电影     评论(0)    

那个我最亲爱的陌生人[国语音轨/中文字幕].Synapses.2019.CHINESE.1080p.NF.WEBRip.DDP5.1.x264 PLB 2.47GB 家庭 剧情 港台电影  第1张

◎译 名 那个我最亲爱的陌生人 / The Beloved Stranger / Synapses

◎片 名 那偽易钣H愛的陌生人

◎年 代 2019

◎产 地 中国台湾

◎类 别 剧情 / 家庭

◎语 言 汉语普通话 / 闽南语

◎上映日期 2019-11-15(中国台湾) / 2019-11-07(台北金马影展)

◎IMDb链接 https://www.imdb.com/title/tt7835010/

◎豆瓣评分 6.5/10 (1293人评价)

◎豆瓣链接 https://movie.douban.com/subject/27177463/

◎片 长 116分钟

◎导 演 张作骥 Tso-chi Chang (id:1274548)

◎编 剧 张作骥 Tso-chi Chang (id:1274548)

◎演 员 吕雪凤 Hsueh-Feng Lü (id:1312996)

李梦 Meng Li (id:1317539)

阳靓 Peace Yang (id:1400457)

李英铨 Ying-Chuan Li (id:1423721)

李鸿其 Hong-Chi Lee (id:1352153)

郑人硕 Rexen Cheng (id:1341951)

李幼鹦鹉鹌鹑小白文鸟 (id:1408519)

李烈 Lieh Li (id:1316681)

邱志宇 Oscar Chiu (id:1389248)

吴美和 Mei-Ho Wu (id:1437922)

张作骥 Tso-chi Chang (id:1274548)

张作骥 Tso-chi Chang (id:1274548)

张作骥 Tso-chi Chang (id:1274548)

◎简 介

绿树成荫,夏雨淋漓,小学生阿全的暑假作业是要观察鸡蛋的孵化,而他的家庭似乎也面临着变化:在成长过程当中缺席的母亲才从监狱假释,又回头去找当初要她顶罪的男友, 令阿嬷与妈妈的争执越演越烈;爷爷则被诊断出阿兹海默症,阿嬷看似无微不至的照顾, 更像在掩饰什么不可告人的秘密。此时,爷爷的旧友来访,看似友善温和的他,却掀起了 一阵家庭风暴??

◎获奖情况 (共4项)

第49届鹿特丹国际电影节 (2020)

大银幕奖(提名)

└──张作骥 (id:1274548)

第22届台北电影节 (2020)

台北电影奖 最佳女主角奖(提名)

└──吕雪凤 (id:1312996)

台北电影奖 最佳男配角奖

└──李英铨 (id:1423721)

台北电影奖 最佳女配角奖(提名)

└──吴美和 (id:1437922)

  1. Video

  2. ID : 1

  3. Format : AVC

  4. Format/Info : Advanced Video Codec

  5. Format profile : [email protected]

  6. Format settings : CABAC / 3 Ref Frames

  7. Format settings, CABAC : Yes

  8. Format settings, Reference frames : 3 frames

  9. Codec ID : V_MPEG4/ISO/AVC

  10. Duration : 1 h 55 min

  11. Bit rate mode : Variable

  12. Bit rate : 2 411 kb/s

  13. Nominal bit rate : 3 480 kb/s

  14. Maximum bit rate : 5 220 kb/s

  15. Width : 1 920 pixels

  16. Height : 1 080 pixels

  17. Display aspect ratio : 16:9

  18. Frame rate mode : Constant

  19. Frame rate : 24.000 FPS

  20. Color space : YUV

  21. Chroma subsampling : 4:2:0

  22. Bit depth : 8 bits

  23. Scan type : Progressive

  24. Bits/(Pixel*Frame) : 0.048

  25. Stream size : 1.95 GiB (79%)

  26. Writing library : x264 core 148 r2722 1b0121b

  27. Encoding settings : cabac=1 / ref=3 / deblock=1:0:0 / analyse=0x1:0x111 / me=umh / subme=10 / psy=1 / psy_rd=1.00:0.00 / mixed_ref=1 / me_range=24 / chroma_me=1 / trellis=2 / 8x8dct=0 / cqm=0 / deadzone=21,11 / fast_pskip=1 / chroma_qp_offset=-2 / threads=6 / lookahead_threads=1 / sliced_threads=0 / nr=0 / decimate=1 / interlaced=0 / NTMzNTQ= / bluray_compat=0 / stitchable=1 / constrained_intra=0 / bframes=2 / b_pyramid=0 / b_adapt=2 / b_bias=0 / direct=3 / weightb=1 / open_gop=0 / weightp=2 / keyint=250 / keyint_min=24 / scenecut=0 / intra_refresh=0 / rc_lookahead=48 / rc=2pass / mbtree=1 / bitrate=3480 / ratetol=1.0 / qcomp=0.50 / qpmin=6 / qpmax=51 / qpstep=4 / cplxblur=20.0 / qblur=0.5 / vbv_maxrate=5220 / vbv_bufsize=6960 / nal_hrd=vbr / filler=0 / NTMzNTQ=LmsMAP37EqsCpk / ip_ratio=1.40 / aq=1:1.00

  28. Default : Yes

  29. Forced : No


  30. Audio

  31. ID : 2

  32. Format : E-AC-3

  33. Format/Info : Enhanced AC-3

  34. Commercial name : Dolby Digital Plus

  35. Codec ID : A_EAC3

  36. Duration : 1 h 55 min

  37. Bit rate mode : Constant

  38. Bit rate : 640 kb/s

  39. Channel(s) : 6 channels

  40. Channel layout : L R C LFE Ls Rs

  41. Sampling rate : 48.0 kHz

  42. Frame rate : 31.250 FPS (1536 SPF)

  43. Compression mode : Lossy

  44. Stream size : 531 MiB (21%)

  45. Title : Mandarin

  46. Language : Chinese

  47. Service kind : Complete Main

  48. Default : Yes

  49. Forced : No

  50. Encoded date : UTC 2020-12-27 13:47:52


  51. Text #1

  52. ID : 3

  53. Format : UTF-8

  54. Codec ID : S_TEXT/UTF8

  55. Codec ID/Info : UTF-8 Plain Text

  56. Duration : 1 h 49 min

  57. Bit rate : 50 b/s

  58. Count of elements : 1561

  59. Stream size : 40.1 KiB (0%)

  60. Language : English

  61. Default : No

  62. Forced : No


  63. Text #2

  64. ID : 4

  65. Format : UTF-8

  66. Codec ID : S_TEXT/UTF8

  67. Codec ID/Info : UTF-8 Plain Text

  68. Duration : 1 h 49 min

  69. Bit rate : 45 b/s

  70. Count of elements : 1607

  71. Stream size : 36.0 KiB (0%)

  72. Title : Traditional

  73. Language : Chinese

  74. Default : No

  75. Forced : No


  76. Text #3

  77. ID : 5

  78. Format : UTF-8

  79. Codec ID : S_TEXT/UTF8

  80. Codec ID/Info : UTF-8 Plain Text

  81. Duration : 1 h 48 min

  82. Bit rate : 11 b/s

  83. Count of elements : 374

  84. Stream size : 8.81 KiB (0%)

  85. Title : Traditional Forced

  86. Language : Chinese

  87. Default : No

  88. Forced : Yes

复制代码

那个我最亲爱的陌生人[国语音轨/中文字幕].Synapses.2019.CHINESE.1080p.NF.WEBRip.DDP5.1.x264 PLB 2.47GB 家庭 剧情 港台电影  第2张 那个我最亲爱的陌生人[国语音轨/中文字幕].Synapses.2019.CHINESE.1080p.NF.WEBRip.DDP5.1.x264 PLB 2.47GB 家庭 剧情 港台电影  第3张 那个我最亲爱的陌生人[国语音轨/中文字幕].Synapses.2019.CHINESE.1080p.NF.WEBRip.DDP5.1.x264 PLB 2.47GB 家庭 剧情 港台电影  第4张



文件下载


除非特别注明,本文『那个我最亲爱的陌生人[国语音轨/中文字幕].Synapses.2019.CHINESE.1080p.NF.WEBRip.DDP5.1.x264-PLB 2.47GB』来源于互联网机器人自动抓取,非本站原创。 浮游电影网不对本文拥有版权,如有侵犯,请联系邮箱:fuyouu#yandex.com[#换成@]投诉。我们会在15个工作日内删除。 但烦请转载时请标明出处:“本文转载于『浮游电影网』,原文地址:https://www.fuyouu.com/21096.html

评论吧骚年!

发表你的见解   

昵称*

E-mail*(建议输入,以便收到博主回复的提示邮件)

验证码*

您可以使用eMule或eMule Mod(Windows)、aMule(Win、Linux、Mac)等软件下载eD2k链接。。
eMule收藏集(.emulecollection)文件是您选中的所有链接的列表文件。eMule可以直接下载它们。
按住SHIFT键选择可以选中多个选择框。
可用文件名和大小选择器来选择文件。
文件名选择器帮您根据文件名称或后缀来选择文件。不分大小写。
符号使用:
和:空格( )、+
不包含:-
或:|
转义:一对英文引号("");
匹配开头:^
匹配结尾:$
例如:
选中所有名称中包含有“eMule”或“0.49c”字眼,但不包含有“exe”字眼的:emule|0.49c -exe
选中所有名称的开头是“eMule”,结尾是“0.49c”的:^emule 0.49c$
选中所有名称中带有“eMule 0.49c”的(必须是“eMule 0.49c”,中间没有别的字符,不能是“eMule fake 0.49c”),需要转义:"emule 0.49c"
大小选择器帮您根据文件大小选择文件。