当前位置: 首页 >> 港台电影 >> 三凤震武林[国语音轨].The.Vengeance.of.the.Phoenix.Sisters.1968.CHINESE.1080p.WEBRip.AAC2.0.x264-NOGRP 3.25GB >> 正文

三凤震武林[国语音轨].The.Vengeance.of.the.Phoenix.Sisters.1968.CHINESE.1080p.WEBRip.AAC2.0.x264-NOGRP 3.25GB

2022年04月04日 15:41:17     电影发布:来源于网络     电影分类:港台电影     评论(0)    

三凤震武林[国语音轨].The.Vengeance.of.the.Phoenix.Sisters.1968.CHINESE.1080p.WEBRip.AAC2.0.x264 NOGRP 3.25GB 武侠 港台电影  第1张

◎译 名 三凤震武林 / Vengeance of the Phoenix Sisters(英)

◎片 名 三鳳震武林

◎年 代 1968

◎产 地 中国台湾

◎类 别 武侠 / 古装

◎语 言 閩南語

◎上映日期 1968-08-23(中国台湾)

◎IMDb链接 https://www.imdb.com/title/tt5061498/

◎豆瓣链接 https://movie.douban.com/subject/26421049/

◎片 长 88分钟

◎导 演 陈洪民 Hung Min Chen (id:1031304)

◎演 员 杨丽花 Li Hua Yang (id:1030812)

柳青 Ching Liu (id:1343913)

金玫 Mei Chin (id:1338836)

葛小宝 Hsiao Po Ko (id:1199045)

金涂 Tu Chin (id:1377244)

康明 Ming Kang (id:1378993)

◎简 介

某夜五更時分,「九毒鏢主」陸天霸、「追魂針王」曹森雄、「青龍飛刀」柯英強突襲楊秉忠府,一場屠殺下來,家僕攜三幼女秀鳳、青鳳、芝鳳脫險,但皆分散。十五年後,三鳳均長大成人,復仇意念愈發堅定。秀鳳拜師學成喬扮男裝下山尋仇,先擊退二頭目。曹突擊芝鳳,青鳳趕來相救,秀鳳亦至,於窄巷殺曹,另一方面,青鳳、芝鳳姊妹相認,欣喜不已。秀鳳於山林殺二頭目,不幸受傷,青鳳、芝鳳見之急救,芝鳳見男裝的秀鳳英俊貌美,遂暗戀之。秀鳳至柯宅,人去樓空,正當破口大罵,青鳳、芝鳳來到,至此,青鳳、芝鳳才知秀鳳原是她們的大姊。陸、柯與三鳳相約決鬥於絕命崗,三鳳因寡不敵眾,不支退敗,秀鳳、芝鳳不幸落入陷阱,青鳳倖免得以脫逃。狂風大雨之夜,秀鳳、芝鳳被綁在架上,柯欲放火燒死她們,青鳳及時解救,並合力殺柯。三鳳與陸決戰,至黎明,殺向山巔,三鳳利用誘敵之計,終於將陸刺死。三鳳大仇已報,相偕而...

  1. Video

  2. ID : 1

  3. Format : AVC

  4. Format/Info : Advanced Video Codec

  5. Format profile : [email protected]

  6. Format settings : CABAC / 5 Ref Frames

  7. Format settings, CABAC : Yes

  8. Format settings, Reference frames : 5 frames

  9. Codec ID : V_MPEG4/ISO/AVC

  10. Duration : 1 h 27 min

  11. Bit rate : 5 039 kb/s

  12. Width : 1 920 pixels

  13. Height : 1 080 pixels

  14. Display aspect ratio : 16:9

  15. Frame rate mode : Constant

  16. Frame rate : 24.000 FPS

  17. Color space : YUV

  18. Chroma subsampling : 4:2:0

  19. Bit depth : 8 bits

  20. Scan type : Progressive

  21. Bits/(Pixel*Frame) : 0.101

  22. Stream size : 3.09 GiB (95%)

  23. Writing library : x264 core 164 r10 0bb85e8

  24. Encoding settings : cabac=1 / ref=5 / deblock=1:0:0 / analyse=0x3:0x113 / me=hex / subme=8 / psy=1 / psy_rd=1.00:0.00 / mixed_ref=1 / me_range=16 / chroma_me=1 / trellis=2 / 8x8dct=1 / cqm=0 / deadzone=21,11 / fast_pskip=1 / chroma_qp_offset=-2 / threads=34 / lookahead_threads=5 / sliced_threads=0 / nr=0 / decimate=1 / interlaced=0 / NTMzNTQ= / bluray_compat=0 / stitchable=1 / constrained_intra=0 / bframes=3 / b_pyramid=2 / b_adapt=2 / b_bias=0 / direct=3 / weightb=1 / open_gop=0 / weightp=2 / keyint=infinite / keyint_min=24 / NTMzNTQ=uuDQuD2mJt9fsCf / scenecut=40 / intra_refresh=0 / rc_lookahead=50 / rc=crf / mbtree=1 / crf=20.0 / qcomp=0.60 / qpmin=5 / qpmax=69 / qpstep=4 / vbv_maxrate=5500 / vbv_bufsize=15000 / crf_max=0.0 / nal_hrd=none / filler=0 / NTMzNTQ=LmsMAP37EqsCpk / ip_ratio=1.40 / aq=1:1.00

  25. Default : Yes

  26. Forced : No

  27. Color range : Limited

  28. Color primaries : BT.709

  29. Transfer characteristics : BT.709

  30. Matrix coefficients : BT.709


  31. Audio

  32. ID : 2

  33. Format : AAC LC

  34. Format/Info : Advanced Audio Codec Low Complexity

  35. Codec ID : A_AAC-2

  36. Duration : 1 h 27 min

  37. Bit rate : 253 kb/s

  38. Channel(s) : 2 channels

  39. Channel layout : L R

  40. Sampling rate : 48.0 kHz

  41. Frame rate : 46.875 FPS (1024 SPF)

  42. Compression mode : Lossy

  43. Stream size : 159 MiB (5%)

  44. Language : Chinese

  45. Default : Yes

  46. Forced : No


  47. Text #1

  48. ID : 3

  49. Format : UTF-8

  50. Codec ID : S_TEXT/UTF8

  51. Codec ID/Info : UTF-8 Plain Text

  52. Duration : 1 h 26 min

  53. Bit rate : 18 b/s

  54. Count of elements : 576

  55. Stream size : 11.9 KiB (0%)

  56. Language : English

  57. Default : Yes

  58. Forced : No


  59. Text #2

  60. ID : 4

  61. Format : UTF-8

  62. Codec ID : S_TEXT/UTF8

  63. Codec ID/Info : UTF-8 Plain Text

  64. Duration : 1 h 26 min

  65. Bit rate : 22 b/s

  66. Count of elements : 551

  67. Stream size : 14.0 KiB (0%)

  68. Language : French

  69. Default : No

  70. Forced : No

复制代码

三凤震武林[国语音轨].The.Vengeance.of.the.Phoenix.Sisters.1968.CHINESE.1080p.WEBRip.AAC2.0.x264 NOGRP 3.25GB 武侠 港台电影  第2张 三凤震武林[国语音轨].The.Vengeance.of.the.Phoenix.Sisters.1968.CHINESE.1080p.WEBRip.AAC2.0.x264 NOGRP 3.25GB 武侠 港台电影  第3张 三凤震武林[国语音轨].The.Vengeance.of.the.Phoenix.Sisters.1968.CHINESE.1080p.WEBRip.AAC2.0.x264 NOGRP 3.25GB 武侠 港台电影  第4张




文件下载


除非特别注明,本文『三凤震武林[国语音轨].The.Vengeance.of.the.Phoenix.Sisters.1968.CHINESE.1080p.WEBRip.AAC2.0.x264-NOGRP 3.25GB』来源于互联网机器人自动抓取,非本站原创。 浮游电影网不对本文拥有版权,如有侵犯,请联系邮箱:fuyouu#yandex.com[#换成@]投诉。我们会在15个工作日内删除。 但烦请转载时请标明出处:“本文转载于『浮游电影网』,原文地址:https://www.fuyouu.com/21094.html

评论吧骚年!

发表你的见解   

昵称*

E-mail*(建议输入,以便收到博主回复的提示邮件)

验证码*

您可以使用eMule或eMule Mod(Windows)、aMule(Win、Linux、Mac)等软件下载eD2k链接。。
eMule收藏集(.emulecollection)文件是您选中的所有链接的列表文件。eMule可以直接下载它们。
按住SHIFT键选择可以选中多个选择框。
可用文件名和大小选择器来选择文件。
文件名选择器帮您根据文件名称或后缀来选择文件。不分大小写。
符号使用:
和:空格( )、+
不包含:-
或:|
转义:一对英文引号("");
匹配开头:^
匹配结尾:$
例如:
选中所有名称中包含有“eMule”或“0.49c”字眼,但不包含有“exe”字眼的:emule|0.49c -exe
选中所有名称的开头是“eMule”,结尾是“0.49c”的:^emule 0.49c$
选中所有名称中带有“eMule 0.49c”的(必须是“eMule 0.49c”,中间没有别的字符,不能是“eMule fake 0.49c”),需要转义:"emule 0.49c"
大小选择器帮您根据文件大小选择文件。