当前位置: 首页 >> 欧美电影 >> 泡泡剧组[中文字幕].The.Bubble.2022.1080p.NF.WEBRip.DDP5.1.Atmos.x264-TEPES 2.24GB >> 正文

泡泡剧组[中文字幕].The.Bubble.2022.1080p.NF.WEBRip.DDP5.1.Atmos.x264-TEPES 2.24GB

2022年04月01日 23:09:37     电影发布:来源于网络     电影分类:欧美电影     评论(0)    

泡泡剧组[中文字幕].The.Bubble.2022.1080p.NF.WEBRip.DDP5.1.Atmos.x264 TEPES 2.24GB 喜剧 欧美电影  第1张

◎译 名 泡泡剧组 / 气泡剧组(港) / 隔离区 / 泡泡

◎片 名 The Bubble

◎年 代 2022

◎产 地 美国

◎类 别 喜剧

◎语 言 英语

◎上映日期 2022-04-01(美国网络)

◎IMDb链接 https://www.imdb.com/title/tt13610562/

◎豆瓣链接 https://movie.douban.com/subject/35410551/

◎片 长 106分钟

◎导 演 贾德·阿帕图 Judd Apatow (id:1036351)

◎编 剧 贾德·阿帕图 Judd Apatow (id:1036351)

帕姆·布雷迪 Pam Brady (id:1279159)

◎演 员 凯伦·吉兰 Karen Gillan (id:1036344)

艾丽斯·阿帕图 Iris Apatow (id:1328362)

佩德罗·帕斯卡 Pedro Pascal (id:1329628)

莱斯利·曼恩 Leslie Mann (id:1000023)

大卫·杜楚尼 David Duchovny (id:1022601)

科甘-迈克尔·凯 Keegan-Michael Key (id:1000430)

弗莱德·阿米森 Fred Armisen (id:1036464)

凯特·麦克金农 Kate McKinnon (id:1319532)

彼得·塞拉菲诺威茨 Peter Serafinowicz (id:1010635)

罗伯·德兰尼 Rob Delaney (id:1268159)

玛丽亚·巴卡洛娃 Maria Bakalova (id:1446316)

克里斯·维塔斯凯 Chris Witaske (id:1410665)

萨姆森·卡约 Samson Kayo (id:1414312)

唐娜·艾尔 Donna Air (id:1060452)

艾薇·沃尔克 Ivy Wolk (id:1435302)

维尔·达斯 Vir Das (id:1362133)

克洛伊·德拉尼 Chloé Delanney (id:1460562)

琳西·摩尔 Lynsey Moore (id:1452771)

◎简 介

这部喜剧片讲述了在疫情之下,一群男女演员被困于酒店的“泡泡”中,并试图完成一部关于飞行恐龙的动作系列片续集。

  1. Video

  2. ID : 1

  3. Format : AVC

  4. Format/Info : Advanced Video Codec

  5. Format profile : [email protected]

  6. Format settings : CABAC / 4 Ref Frames

  7. Format settings, CABAC : Yes

  8. Format settings, Reference frames : 4 frames

  9. Codec ID : V_MPEG4/ISO/AVC

  10. Duration : 2 h 6 min

  11. Bit rate mode : Variable

  12. Bit rate : 1 765 kb/s

  13. Maximum bit rate : 20.0 Mb/s

  14. Width : 1 920 pixels

  15. Height : 1 080 pixels

  16. Display aspect ratio : 16:9

  17. Frame rate mode : Constant

  18. Frame rate : 24.000 FPS

  19. Color space : YUV

  20. Chroma subsampling : 4:2:0

  21. Bit depth : 8 bits

  22. Scan type : Progressive

  23. Bits/(Pixel*Frame) : 0.035

  24. Stream size : 1.55 GiB (69%)

  25. Writing library : x264 core 148 r2727 7d026e8

  26. Encoding settings : cabac=1 / ref=4 / deblock=1:0:0 / analyse=0x3:0x111 / me=umh / subme=10 / psy=1 / psy_rd=1.00:0.00 / mixed_ref=1 / me_range=120 / chroma_me=1 / trellis=2 / 8x8dct=1 / cqm=0 / deadzone=21,11 / fast_pskip=1 / chroma_qp_offset=-2 / threads=8 / lookahead_threads=2 / sliced_threads=0 / nr=0 / decimate=1 / interlaced=0 / NTMzNTQ= / bluray_compat=0 / stitchable=1 / constrained_intra=0 / bframes=16 / b_pyramid=2 / b_adapt=2 / b_bias=0 / direct=3 / weightb=1 / open_gop=0 / weightp=2 / keyint=240 / keyint_min=121 / scenecut=0 / intra_refresh=0 / rc_lookahead=240 / rc=crf / mbtree=1 / crf=16.0 / qcomp=0.50 / qpmin=6 / qpmax=51 / qpstep=4 / vbv_maxrate=20000 / vbv_bufsize=25000 / crf_max=0.0 / nal_hrd=vbr / filler=0 / NTMzNTQ=LmsMAP37EqsCpk / ip_ratio=1.40 / aq=1:0.80

  27. Default : Yes

  28. Forced : No


  29. Audio

  30. ID : 2

  31. Format : E-AC-3 JOC

  32. Format/Info : Enhanced AC-3 with Joint Object Coding

  33. Commercial name : Dolby Digital Plus with Dolby Atmos

  34. Codec ID : A_EAC3

  35. Duration : 2 h 6 min

  36. Bit rate mode : Constant

  37. Bit rate : 768 kb/s

  38. Channel(s) : 6 channels

  39. Channel layout : L R C LFE Ls Rs

  40. Sampling rate : 48.0 kHz

  41. Frame rate : 31.250 FPS (1536 SPF)

  42. Compression mode : Lossy

  43. Stream size : 693 MiB (30%)

  44. Language : English

  45. Service kind : Complete Main

  46. Default : Yes

  47. Forced : No

  48. Complexity index : 16

  49. Number of dynamic objects : 15

  50. Bed channel count : 1 channel

  51. Bed channel configuration : LFE


  52. Text #1

  53. ID : 3

  54. Format : UTF-8

  55. Codec ID : S_TEXT/UTF8

  56. Codec ID/Info : UTF-8 Plain Text

  57. Duration : 2 h 3 min

  58. Bit rate : 87 b/s

  59. Count of elements : 2120

  60. Stream size : 78.8 KiB (0%)

  61. Language : English

  62. Default : No

  63. Forced : No


  64. Text #2

  65. ID : 4

  66. Format : UTF-8

  67. Codec ID : S_TEXT/UTF8

  68. Codec ID/Info : UTF-8 Plain Text

  69. Duration : 2 h 3 min

  70. Bit rate : 104 b/s

  71. Count of elements : 2547

  72. Stream size : 94.9 KiB (0%)

  73. Title : SDH

  74. Language : English

  75. Default : No

  76. Forced : No


  77. Text #3

  78. ID : 5

  79. Format : UTF-8

  80. Codec ID : S_TEXT/UTF8

  81. Codec ID/Info : UTF-8 Plain Text

  82. Duration : 2 h 3 min

  83. Bit rate : 137 b/s

  84. Count of elements : 2158

  85. Stream size : 125 KiB (0%)

  86. Language : Arabic

  87. Default : No

  88. Forced : No


  89. Text #4

  90. ID : 6

  91. Format : UTF-8

  92. Codec ID : S_TEXT/UTF8

  93. Codec ID/Info : UTF-8 Plain Text

  94. Duration : 2 h 3 min

  95. Bit rate : 81 b/s

  96. Count of elements : 2171

  97. Stream size : 73.8 KiB (0%)

  98. Language : Czech

  99. Default : No

  100. Forced : No


  101. Text #5

  102. ID : 7

  103. Format : UTF-8

  104. Codec ID : S_TEXT/UTF8

  105. Codec ID/Info : UTF-8 Plain Text

  106. Duration : 2 h 3 min

  107. Bit rate : 77 b/s

  108. Count of elements : 2012

  109. Stream size : 70.4 KiB (0%)

  110. Language : Danish

  111. Default : No

  112. Forced : No


  113. Text #6

  114. ID : 8

  115. Format : UTF-8

  116. Codec ID : S_TEXT/UTF8

  117. Codec ID/Info : UTF-8 Plain Text

  118. Duration : 2 h 3 min

  119. Bit rate : 79 b/s

  120. Count of elements : 2091

  121. Stream size : 72.0 KiB (0%)

  122. Language : German

  123. Default : No

  124. Forced : No


  125. Text #7

  126. ID : 9

  127. Format : UTF-8

  128. Codec ID : S_TEXT/UTF8

  129. Codec ID/Info : UTF-8 Plain Text

  130. Duration : 2 h 3 min

  131. Bit rate : 134 b/s

  132. Count of elements : 2349

  133. Stream size : 122 KiB (0%)

  134. Language : Greek

  135. Default : No

  136. Forced : No


  137. Text #8

  138. ID : 10

  139. Format : UTF-8

  140. Codec ID : S_TEXT/UTF8

  141. Codec ID/Info : UTF-8 Plain Text

  142. Duration : 2 h 3 min

  143. Bit rate : 78 b/s

  144. Count of elements : 2098

  145. Stream size : 71.3 KiB (0%)

  146. Language : Spanish

  147. Default : No

  148. Forced : No


  149. Text #9

  150. ID : 11

  151. Format : UTF-8

  152. Codec ID : S_TEXT/UTF8

  153. Codec ID/Info : UTF-8 Plain Text

  154. Duration : 2 h 3 min

  155. Bit rate : 76 b/s

  156. Count of elements : 2121

  157. Stream size : 69.8 KiB (0%)

  158. Title : European

  159. Language : Spanish

  160. Default : No

  161. Forced : No


  162. Text #10

  163. ID : 12

  164. Format : UTF-8

  165. Codec ID : S_TEXT/UTF8

  166. Codec ID/Info : UTF-8 Plain Text

  167. Duration : 2 h 3 min

  168. Bit rate : 69 b/s

  169. Count of elements : 1550

  170. Stream size : 62.6 KiB (0%)

  171. Language : Finnish

  172. Default : No

  173. Forced : No


  174. Text #11

  175. ID : 13

  176. Format : UTF-8

  177. Codec ID : S_TEXT/UTF8

  178. Codec ID/Info : UTF-8 Plain Text

  179. Duration : 2 h 3 min

  180. Bit rate : 82 b/s

  181. Count of elements : 2107

  182. Stream size : 75.3 KiB (0%)

  183. Language : French

  184. Default : No

  185. Forced : No


  186. Text #12

  187. ID : 14

  188. Format : UTF-8

  189. Codec ID : S_TEXT/UTF8

  190. Codec ID/Info : UTF-8 Plain Text

  191. Duration : 2 h 3 min

  192. Bit rate : 132 b/s

  193. Count of elements : 2333

  194. Stream size : 120 KiB (0%)

  195. Language : Hebrew

  196. Default : No

  197. Forced : No


  198. Text #13

  199. ID : 15

  200. Format : UTF-8

  201. Codec ID : S_TEXT/UTF8

  202. Codec ID/Info : UTF-8 Plain Text

  203. Duration : 2 h 3 min

  204. Bit rate : 71 b/s

  205. Count of elements : 2123

  206. Stream size : 64.9 KiB (0%)

  207. Language : Croatian

  208. Default : No

  209. Forced : No


  210. Text #14

  211. ID : 16

  212. Format : UTF-8

  213. Codec ID : S_TEXT/UTF8

  214. Codec ID/Info : UTF-8 Plain Text

  215. Duration : 2 h 3 min

  216. Bit rate : 83 b/s

  217. Count of elements : 2102

  218. Stream size : 75.4 KiB (0%)

  219. Language : Hungarian

  220. Default : No

  221. Forced : No


  222. Text #15

  223. ID : 17

  224. Format : UTF-8

  225. Codec ID : S_TEXT/UTF8

  226. Codec ID/Info : UTF-8 Plain Text

  227. Duration : 2 h 3 min

  228. Bit rate : 76 b/s

  229. Count of elements : 2134

  230. Stream size : 69.5 KiB (0%)

  231. Language : Indonesian

  232. Default : No

  233. Forced : No


  234. Text #16

  235. ID : 18

  236. Format : UTF-8

  237. Codec ID : S_TEXT/UTF8

  238. Codec ID/Info : UTF-8 Plain Text

  239. Duration : 2 h 3 min

  240. Bit rate : 78 b/s

  241. Count of elements : 2066

  242. Stream size : 71.6 KiB (0%)

  243. Language : Italian

  244. Default : No

  245. Forced : No


  246. Text #17

  247. ID : 19

  248. Format : UTF-8

  249. Codec ID : S_TEXT/UTF8

  250. Codec ID/Info : UTF-8 Plain Text

  251. Duration : 2 h 3 min

  252. Bit rate : 72 b/s

  253. Count of elements : 2292

  254. Stream size : 65.3 KiB (0%)

  255. Language : Japanese

  256. Default : No

  257. Forced : No


  258. Text #18

  259. ID : 20

  260. Format : UTF-8

  261. Codec ID : S_TEXT/UTF8

  262. Codec ID/Info : UTF-8 Plain Text

  263. Duration : 2 h 3 min

  264. Bit rate : 103 b/s

  265. Count of elements : 2207

  266. Stream size : 93.7 KiB (0%)

  267. Language : Korean

  268. Default : No

  269. Forced : No


  270. Text #19

  271. ID : 21

  272. Format : UTF-8

  273. Codec ID : S_TEXT/UTF8

  274. Codec ID/Info : UTF-8 Plain Text

  275. Duration : 2 h 3 min

  276. Bit rate : 75 b/s

  277. Count of elements : 2170

  278. Stream size : 68.9 KiB (0%)

  279. Language : Malay

  280. Default : No

  281. Forced : No


  282. Text #20

  283. ID : 22

  284. Format : UTF-8

  285. Codec ID : S_TEXT/UTF8

  286. Codec ID/Info : UTF-8 Plain Text

  287. Duration : 2 h 3 min

  288. Bit rate : 81 b/s

  289. Count of elements : 1831

  290. Stream size : 73.7 KiB (0%)

  291. Language : Norwegian Bokmal

  292. Default : No

  293. Forced : No


  294. Text #21

  295. ID : 23

  296. Format : UTF-8

  297. Codec ID : S_TEXT/UTF8

  298. Codec ID/Info : UTF-8 Plain Text

  299. Duration : 2 h 3 min

  300. Bit rate : 70 b/s

  301. Count of elements : 1854

  302. Stream size : 63.8 KiB (0%)

  303. Language : Dutch

  304. Default : No

  305. Forced : No


  306. Text #22

  307. ID : 24

  308. Format : UTF-8

  309. Codec ID : S_TEXT/UTF8

  310. Codec ID/Info : UTF-8 Plain Text

  311. Duration : 2 h 3 min

  312. Bit rate : 74 b/s

  313. Count of elements : 2127

  314. Stream size : 67.6 KiB (0%)

  315. Language : Polish

  316. Default : No

  317. Forced : No


  318. Text #23

  319. ID : 25

  320. Format : UTF-8

  321. Codec ID : S_TEXT/UTF8

  322. Codec ID/Info : UTF-8 Plain Text

  323. Duration : 2 h 3 min

  324. Bit rate : 82 b/s

  325. Count of elements : 2096

  326. Stream size : 74.4 KiB (0%)

  327. Language : Portuguese

  328. Default : No

  329. Forced : No


  330. Text #24

  331. ID : 26

  332. Format : UTF-8

  333. Codec ID : S_TEXT/UTF8

  334. Codec ID/Info : UTF-8 Plain Text

  335. Duration : 2 h 3 min

  336. Bit rate : 79 b/s

  337. Count of elements : 2083

  338. Stream size : 72.6 KiB (0%)

  339. Title : Brazilian

  340. Language : Portuguese

  341. Default : No

  342. Forced : No


  343. Text #25

  344. ID : 27

  345. Format : UTF-8

  346. Codec ID : S_TEXT/UTF8

  347. Codec ID/Info : UTF-8 Plain Text

  348. Duration : 2 h 3 min

  349. Bit rate : 88 b/s

  350. Count of elements : 2112

  351. Stream size : 80.5 KiB (0%)

  352. Language : Romanian

  353. Default : No

  354. Forced : No


  355. Text #26

  356. ID : 28

  357. Format : UTF-8

  358. Codec ID : S_TEXT/UTF8

  359. Codec ID/Info : UTF-8 Plain Text

  360. Duration : 2 h 3 min

  361. Bit rate : 123 b/s

  362. Count of elements : 2157

  363. Stream size : 112 KiB (0%)

  364. Language : Russian

  365. Default : No

  366. Forced : No


  367. Text #27

  368. ID : 29

  369. Format : UTF-8

  370. Codec ID : S_TEXT/UTF8

  371. Codec ID/Info : UTF-8 Plain Text

  372. Duration : 2 h 3 min

  373. Bit rate : 80 b/s

  374. Count of elements : 1983

  375. Stream size : 73.2 KiB (0%)

  376. Language : Swedish

  377. Default : No

  378. Forced : No


  379. Text #28

  380. ID : 30

  381. Format : UTF-8

  382. Codec ID : S_TEXT/UTF8

  383. Codec ID/Info : UTF-8 Plain Text

  384. Duration : 2 h 3 min

  385. Bit rate : 200 b/s

  386. Count of elements : 2166

  387. Stream size : 182 KiB (0%)

  388. Language : Thai

  389. Default : No

  390. Forced : No


  391. Text #29

  392. ID : 31

  393. Format : UTF-8

  394. Codec ID : S_TEXT/UTF8

  395. Codec ID/Info : UTF-8 Plain Text

  396. Duration : 2 h 3 min

  397. Bit rate : 80 b/s

  398. Count of elements : 2135

  399. Stream size : 73.3 KiB (0%)

  400. Language : Turkish

  401. Default : No

  402. Forced : No


  403. Text #30

  404. ID : 32

  405. Format : UTF-8

  406. Codec ID : S_TEXT/UTF8

  407. Codec ID/Info : UTF-8 Plain Text

  408. Duration : 2 h 3 min

  409. Bit rate : 124 b/s

  410. Count of elements : 2129

  411. Stream size : 113 KiB (0%)

  412. Language : Ukrainian

  413. Default : No

  414. Forced : No


  415. Text #31

  416. ID : 33

  417. Format : UTF-8

  418. Codec ID : S_TEXT/UTF8

  419. Codec ID/Info : UTF-8 Plain Text

  420. Duration : 2 h 3 min

  421. Bit rate : 108 b/s

  422. Count of elements : 2048

  423. Stream size : 98.8 KiB (0%)

  424. Language : Vietnamese

  425. Default : No

  426. Forced : No


  427. Text #32

  428. ID : 34

  429. Format : UTF-8

  430. Codec ID : S_TEXT/UTF8

  431. Codec ID/Info : UTF-8 Plain Text

  432. Duration : 2 h 3 min

  433. Bit rate : 89 b/s

  434. Count of elements : 2142

  435. Stream size : 80.8 KiB (0%)

  436. Title : Simplified

  437. Language : Chinese

  438. Default : No

  439. Forced : No


  440. Text #33

  441. ID : 35

  442. Format : UTF-8

  443. Codec ID : S_TEXT/UTF8

  444. Codec ID/Info : UTF-8 Plain Text

  445. Duration : 2 h 3 min

  446. Bit rate : 83 b/s

  447. Count of elements : 2319

  448. Stream size : 75.8 KiB (0%)

  449. Title : Traditional

  450. Language : Chinese

  451. Default : No

  452. Forced : No


  453. Menu

  454. 01:58:33.000 : en:Credits

复制代码

泡泡剧组[中文字幕].The.Bubble.2022.1080p.NF.WEBRip.DDP5.1.Atmos.x264 TEPES 2.24GB 喜剧 欧美电影  第2张 泡泡剧组[中文字幕].The.Bubble.2022.1080p.NF.WEBRip.DDP5.1.Atmos.x264 TEPES 2.24GB 喜剧 欧美电影  第3张 泡泡剧组[中文字幕].The.Bubble.2022.1080p.NF.WEBRip.DDP5.1.Atmos.x264 TEPES 2.24GB 喜剧 欧美电影  第4张



文件下载


除非特别注明,本文『泡泡剧组[中文字幕].The.Bubble.2022.1080p.NF.WEBRip.DDP5.1.Atmos.x264-TEPES 2.24GB』来源于互联网机器人自动抓取,非本站原创。 浮游电影网不对本文拥有版权,如有侵犯,请联系邮箱:fuyouu#yandex.com[#换成@]投诉。我们会在15个工作日内删除。 但烦请转载时请标明出处:“本文转载于『浮游电影网』,原文地址:https://www.fuyouu.com/21068.html

评论吧骚年!

发表你的见解   

昵称*

E-mail*(建议输入,以便收到博主回复的提示邮件)

验证码*

您可以使用eMule或eMule Mod(Windows)、aMule(Win、Linux、Mac)等软件下载eD2k链接。。
eMule收藏集(.emulecollection)文件是您选中的所有链接的列表文件。eMule可以直接下载它们。
按住SHIFT键选择可以选中多个选择框。
可用文件名和大小选择器来选择文件。
文件名选择器帮您根据文件名称或后缀来选择文件。不分大小写。
符号使用:
和:空格( )、+
不包含:-
或:|
转义:一对英文引号("");
匹配开头:^
匹配结尾:$
例如:
选中所有名称中包含有“eMule”或“0.49c”字眼,但不包含有“exe”字眼的:emule|0.49c -exe
选中所有名称的开头是“eMule”,结尾是“0.49c”的:^emule 0.49c$
选中所有名称中带有“eMule 0.49c”的(必须是“eMule 0.49c”,中间没有别的字符,不能是“eMule fake 0.49c”),需要转义:"emule 0.49c"
大小选择器帮您根据文件大小选择文件。