当前位置: 首页 >> 动画电影 >> 阿波罗10?号:太空时代的童年[中文字幕].Apollo.10.1.and.2.A.Space.Age.Childhood.2022.1080p.NF.WEBRip.DDP5.1.Atmos.x264 >> 正文

阿波罗10?号:太空时代的童年[中文字幕].Apollo.10.1.and.2.A.Space.Age.Childhood.2022.1080p.NF.WEBRip.DDP5.1.Atmos.x264

2022年04月01日 23:05:29     电影发布:来源于网络     电影分类:动画电影     评论(0)    

阿波罗10?号:太空时代的童年[中文字幕].Apollo.10.1.and.2.A.Space.Age.Childhood.2022.1080p.NF.WEBRip.DDP5.1.Atmos.x264 动画 剧情 动画电影  第1张

◎译 名 阿波罗10?号:太空时代的童年 / 阿波罗10?号:太空时代的冒险 / 阿波罗十又二分之一:太空时代的冒险 / 阿波罗10 号半:我要上太空 / Apollo 10?: A Space Age Adventure / Apollo 10 1 / 2: A Space Age Adventure / Apollo 10?

◎片 名 Apollo 10 1/2: A Space Age Childhood

◎年 代 2022

◎产 地 美国

◎类 别 剧情 / 科幻 / 动画 / 冒险

◎语 言 英语

◎上映日期 2022-03-13(西南偏南电影节) / 2022-04-01(美国网络)

◎IMDb链接 https://www.imdb.com/title/tt7978758/

◎豆瓣链接 https://movie.douban.com/subject/30142421/

◎片 长 98分钟

◎导 演 理查德·林克莱特 Richard Linklater (id:1025246)

◎编 剧 理查德·林克莱特 Richard Linklater (id:1025246)

◎演 员 扎克瑞·莱维 Zachary Levi (id:1027147)

杰克·布莱克 Jack Black (id:1049492)

格伦·鲍威尔 Glen Powell (id:1323123)

乔什·维金斯 Josh Wiggins (id:1337763)

李·埃迪 Lee Eddy (id:1369549)

莫娜·李·富尔茨 Mona Lee Fultz (id:1388407)

塞缪尔·戴维斯 Samuel Davis (id:1388405)

Brian Villalobos (id:1271951)

Nick Stevenson Nick Stevenson (id:1333386)

比尔·怀斯 Bill Wise (id:1362024)

霍尔特·鲍格斯 Holt Boggs (id:1010030)

拉里·杰克·唐森 Larry Jack Dotson (id:1247206)

Kasey James Kasey James (id:1010817)

理查德·林克莱特 Richard Linklater (id:1025246)

◎简 介

理查德·林克莱特新片已在前期筹备中!新作背景设置在1969年夏天,将以孩童视角切入,融入富有时代感的配乐,描述人类登月的那一历史性瞬间。林克莱特表示,“休斯顿曾拥有太多东西:NASA、医疗中心、阿斯托洛体育场。那里有种共同的氛围,所有孩子的父母都是为了共同目标为NASA工作。”目前林克莱特通过休斯顿电影委员会,对大众发出号召,寻求上世纪60年代休斯顿地区的影像资料。该片现暂未确定主角,将于2019年上映,赶上阿波罗11号登月50周年。

  1. Video

  2. ID : 1

  3. Format : AVC

  4. Format/Info : Advanced Video Codec

  5. Format profile : [email protected]

  6. Format settings : CABAC / 4 Ref Frames

  7. Format settings, CABAC : Yes

  8. Format settings, Reference frames : 4 frames

  9. Codec ID : V_MPEG4/ISO/AVC

  10. Duration : 1 h 38 min

  11. Bit rate mode : Variable

  12. Bit rate : 4 960 kb/s

  13. Maximum bit rate : 20.0 Mb/s

  14. Width : 1 920 pixels

  15. Height : 1 080 pixels

  16. Display aspect ratio : 16:9

  17. Frame rate mode : Constant

  18. Frame rate : 24.000 FPS

  19. Color space : YUV

  20. Chroma subsampling : 4:2:0

  21. Bit depth : 8 bits

  22. Scan type : Progressive

  23. Bits/(Pixel*Frame) : 0.100

  24. Stream size : 3.43 GiB (86%)

  25. Writing library : x264 core 148 r2727 7d026e8

  26. Encoding settings : cabac=1 / ref=4 / deblock=1:0:0 / analyse=0x3:0x111 / me=umh / subme=10 / psy=1 / psy_rd=1.00:0.00 / mixed_ref=1 / me_range=120 / chroma_me=1 / trellis=2 / 8x8dct=1 / cqm=0 / deadzone=21,11 / fast_pskip=1 / chroma_qp_offset=-2 / threads=8 / lookahead_threads=2 / sliced_threads=0 / nr=0 / decimate=1 / interlaced=0 / NTMzNTQ= / bluray_compat=0 / stitchable=1 / constrained_intra=0 / bframes=16 / b_pyramid=2 / b_adapt=2 / b_bias=0 / direct=3 / weightb=1 / open_gop=0 / weightp=2 / keyint=240 / keyint_min=121 / scenecut=0 / intra_refresh=0 / rc_lookahead=240 / rc=crf / mbtree=1 / crf=16.0 / qcomp=0.50 / qpmin=6 / qpmax=51 / qpstep=4 / vbv_maxrate=20000 / vbv_bufsize=25000 / crf_max=0.0 / nal_hrd=vbr / filler=0 / NTMzNTQ=LmsMAP37EqsCpk / ip_ratio=1.40 / aq=1:0.80

  27. Default : Yes

  28. Forced : No


  29. Audio

  30. ID : 2

  31. Format : E-AC-3 JOC

  32. Format/Info : Enhanced AC-3 with Joint Object Coding

  33. Commercial name : Dolby Digital Plus with Dolby Atmos

  34. Codec ID : A_EAC3

  35. Duration : 1 h 38 min

  36. Bit rate mode : Constant

  37. Bit rate : 768 kb/s

  38. Channel(s) : 6 channels

  39. Channel layout : L R C LFE Ls Rs

  40. Sampling rate : 48.0 kHz

  41. Frame rate : 31.250 FPS (1536 SPF)

  42. Compression mode : Lossy

  43. Stream size : 544 MiB (13%)

  44. Language : English

  45. Service kind : Complete Main

  46. Default : Yes

  47. Forced : No

  48. Complexity index : 16

  49. Number of dynamic objects : 15

  50. Bed channel count : 1 channel

  51. Bed channel configuration : LFE


  52. Text #1

  53. ID : 3

  54. Format : UTF-8

  55. Codec ID : S_TEXT/UTF8

  56. Codec ID/Info : UTF-8 Plain Text

  57. Duration : 1 h 36 min

  58. Bit rate : 109 b/s

  59. Count of elements : 1643

  60. Stream size : 76.9 KiB (0%)

  61. Language : English

  62. Default : No

  63. Forced : No


  64. Text #2

  65. ID : 4

  66. Format : UTF-8

  67. Codec ID : S_TEXT/UTF8

  68. Codec ID/Info : UTF-8 Plain Text

  69. Duration : 1 h 36 min

  70. Bit rate : 123 b/s

  71. Count of elements : 1884

  72. Stream size : 87.9 KiB (0%)

  73. Title : SDH

  74. Language : English

  75. Default : No

  76. Forced : No


  77. Text #3

  78. ID : 5

  79. Format : UTF-8

  80. Codec ID : S_TEXT/UTF8

  81. Codec ID/Info : UTF-8 Plain Text

  82. Duration : 1 h 32 min

  83. Bit rate : 160 b/s

  84. Count of elements : 1651

  85. Stream size : 109 KiB (0%)

  86. Language : Arabic

  87. Default : No

  88. Forced : No


  89. Text #4

  90. ID : 6

  91. Format : UTF-8

  92. Codec ID : S_TEXT/UTF8

  93. Codec ID/Info : UTF-8 Plain Text

  94. Duration : 1 h 37 min

  95. Bit rate : 95 b/s

  96. Count of elements : 1502

  97. Stream size : 68.3 KiB (0%)

  98. Language : Czech

  99. Default : No

  100. Forced : No


  101. Text #5

  102. ID : 7

  103. Format : UTF-8

  104. Codec ID : S_TEXT/UTF8

  105. Codec ID/Info : UTF-8 Plain Text

  106. Duration : 1 h 37 min

  107. Bit rate : 94 b/s

  108. Count of elements : 1448

  109. Stream size : 67.2 KiB (0%)

  110. Language : Danish

  111. Default : No

  112. Forced : No


  113. Text #6

  114. ID : 8

  115. Format : UTF-8

  116. Codec ID : S_TEXT/UTF8

  117. Codec ID/Info : UTF-8 Plain Text

  118. Duration : 1 h 37 min

  119. Bit rate : 94 b/s

  120. Count of elements : 1493

  121. Stream size : 67.5 KiB (0%)

  122. Language : German

  123. Default : No

  124. Forced : No


  125. Text #7

  126. ID : 9

  127. Format : UTF-8

  128. Codec ID : S_TEXT/UTF8

  129. Codec ID/Info : UTF-8 Plain Text

  130. Duration : 1 h 37 min

  131. Bit rate : 151 b/s

  132. Count of elements : 1584

  133. Stream size : 108 KiB (0%)

  134. Language : Greek

  135. Default : No

  136. Forced : No


  137. Text #8

  138. ID : 10

  139. Format : UTF-8

  140. Codec ID : S_TEXT/UTF8

  141. Codec ID/Info : UTF-8 Plain Text

  142. Duration : 1 h 37 min

  143. Bit rate : 95 b/s

  144. Count of elements : 1534

  145. Stream size : 67.8 KiB (0%)

  146. Language : Spanish

  147. Default : No

  148. Forced : No


  149. Text #9

  150. ID : 11

  151. Format : UTF-8

  152. Codec ID : S_TEXT/UTF8

  153. Codec ID/Info : UTF-8 Plain Text

  154. Duration : 1 h 32 min

  155. Bit rate : 125 b/s

  156. Count of elements : 1807

  157. Stream size : 85.5 KiB (0%)

  158. Title : SDH

  159. Language : Spanish

  160. Default : No

  161. Forced : No


  162. Text #10

  163. ID : 12

  164. Format : UTF-8

  165. Codec ID : S_TEXT/UTF8

  166. Codec ID/Info : UTF-8 Plain Text

  167. Duration : 1 h 37 min

  168. Bit rate : 91 b/s

  169. Count of elements : 1387

  170. Stream size : 65.4 KiB (0%)

  171. Title : European

  172. Language : Spanish

  173. Default : No

  174. Forced : No


  175. Text #11

  176. ID : 13

  177. Format : UTF-8

  178. Codec ID : S_TEXT/UTF8

  179. Codec ID/Info : UTF-8 Plain Text

  180. Duration : 1 h 37 min

  181. Bit rate : 90 b/s

  182. Count of elements : 1354

  183. Stream size : 64.2 KiB (0%)

  184. Language : Finnish

  185. Default : No

  186. Forced : No


  187. Text #12

  188. ID : 14

  189. Format : UTF-8

  190. Codec ID : S_TEXT/UTF8

  191. Codec ID/Info : UTF-8 Plain Text

  192. Duration : 1 h 37 min

  193. Bit rate : 94 b/s

  194. Count of elements : 1478

  195. Stream size : 67.0 KiB (0%)

  196. Language : French

  197. Default : No

  198. Forced : No


  199. Text #13

  200. ID : 15

  201. Format : UTF-8

  202. Codec ID : S_TEXT/UTF8

  203. Codec ID/Info : UTF-8 Plain Text

  204. Duration : 1 h 37 min

  205. Bit rate : 134 b/s

  206. Count of elements : 1583

  207. Stream size : 95.9 KiB (0%)

  208. Language : Hebrew

  209. Default : No

  210. Forced : No


  211. Text #14

  212. ID : 16

  213. Format : UTF-8

  214. Codec ID : S_TEXT/UTF8

  215. Codec ID/Info : UTF-8 Plain Text

  216. Duration : 1 h 37 min

  217. Bit rate : 85 b/s

  218. Count of elements : 1513

  219. Stream size : 61.3 KiB (0%)

  220. Language : Croatian

  221. Default : No

  222. Forced : No


  223. Text #15

  224. ID : 17

  225. Format : UTF-8

  226. Codec ID : S_TEXT/UTF8

  227. Codec ID/Info : UTF-8 Plain Text

  228. Duration : 1 h 37 min

  229. Bit rate : 93 b/s

  230. Count of elements : 1499

  231. Stream size : 66.7 KiB (0%)

  232. Language : Hungarian

  233. Default : No

  234. Forced : No


  235. Text #16

  236. ID : 18

  237. Format : UTF-8

  238. Codec ID : S_TEXT/UTF8

  239. Codec ID/Info : UTF-8 Plain Text

  240. Duration : 1 h 37 min

  241. Bit rate : 96 b/s

  242. Count of elements : 1550

  243. Stream size : 68.9 KiB (0%)

  244. Language : Indonesian

  245. Default : No

  246. Forced : No


  247. Text #17

  248. ID : 19

  249. Format : UTF-8

  250. Codec ID : S_TEXT/UTF8

  251. Codec ID/Info : UTF-8 Plain Text

  252. Duration : 1 h 37 min

  253. Bit rate : 107 b/s

  254. Count of elements : 1572

  255. Stream size : 76.9 KiB (0%)

  256. Language : Italian

  257. Default : No

  258. Forced : No


  259. Text #18

  260. ID : 20

  261. Format : UTF-8

  262. Codec ID : S_TEXT/UTF8

  263. Codec ID/Info : UTF-8 Plain Text

  264. Duration : 1 h 37 min

  265. Bit rate : 87 b/s

  266. Count of elements : 1459

  267. Stream size : 62.2 KiB (0%)

  268. Language : Japanese

  269. Default : No

  270. Forced : No


  271. Text #19

  272. ID : 21

  273. Format : UTF-8

  274. Codec ID : S_TEXT/UTF8

  275. Codec ID/Info : UTF-8 Plain Text

  276. Duration : 1 h 37 min

  277. Bit rate : 99 b/s

  278. Count of elements : 1572

  279. Stream size : 70.8 KiB (0%)

  280. Language : Korean

  281. Default : No

  282. Forced : No


  283. Text #20

  284. ID : 22

  285. Format : UTF-8

  286. Codec ID : S_TEXT/UTF8

  287. Codec ID/Info : UTF-8 Plain Text

  288. Duration : 1 h 37 min

  289. Bit rate : 96 b/s

  290. Count of elements : 1570

  291. Stream size : 68.5 KiB (0%)

  292. Language : Malay

  293. Default : No

  294. Forced : No


  295. Text #21

  296. ID : 23

  297. Format : UTF-8

  298. Codec ID : S_TEXT/UTF8

  299. Codec ID/Info : UTF-8 Plain Text

  300. Duration : 1 h 37 min

  301. Bit rate : 91 b/s

  302. Count of elements : 1481

  303. Stream size : 65.4 KiB (0%)

  304. Language : Norwegian Bokmal

  305. Default : No

  306. Forced : No


  307. Text #22

  308. ID : 24

  309. Format : UTF-8

  310. Codec ID : S_TEXT/UTF8

  311. Codec ID/Info : UTF-8 Plain Text

  312. Duration : 1 h 37 min

  313. Bit rate : 84 b/s

  314. Count of elements : 1464

  315. Stream size : 59.9 KiB (0%)

  316. Language : Dutch

  317. Default : No

  318. Forced : No


  319. Text #23

  320. ID : 25

  321. Format : UTF-8

  322. Codec ID : S_TEXT/UTF8

  323. Codec ID/Info : UTF-8 Plain Text

  324. Duration : 1 h 37 min

  325. Bit rate : 92 b/s

  326. Count of elements : 1503

  327. Stream size : 66.3 KiB (0%)

  328. Language : Polish

  329. Default : No

  330. Forced : No


  331. Text #24

  332. ID : 26

  333. Format : UTF-8

  334. Codec ID : S_TEXT/UTF8

  335. Codec ID/Info : UTF-8 Plain Text

  336. Duration : 1 h 37 min

  337. Bit rate : 101 b/s

  338. Count of elements : 1560

  339. Stream size : 72.3 KiB (0%)

  340. Language : Portuguese

  341. Default : No

  342. Forced : No


  343. Text #25

  344. ID : 27

  345. Format : UTF-8

  346. Codec ID : S_TEXT/UTF8

  347. Codec ID/Info : UTF-8 Plain Text

  348. Duration : 1 h 33 min

  349. Bit rate : 102 b/s

  350. Count of elements : 1512

  351. Stream size : 69.5 KiB (0%)

  352. Title : Brazilian

  353. Language : Portuguese

  354. Default : No

  355. Forced : No


  356. Text #26

  357. ID : 28

  358. Format : UTF-8

  359. Codec ID : S_TEXT/UTF8

  360. Codec ID/Info : UTF-8 Plain Text

  361. Duration : 1 h 37 min

  362. Bit rate : 107 b/s

  363. Count of elements : 1481

  364. Stream size : 76.2 KiB (0%)

  365. Language : Romanian

  366. Default : No

  367. Forced : No


  368. Text #27

  369. ID : 29

  370. Format : UTF-8

  371. Codec ID : S_TEXT/UTF8

  372. Codec ID/Info : UTF-8 Plain Text

  373. Duration : 1 h 37 min

  374. Bit rate : 143 b/s

  375. Count of elements : 1577

  376. Stream size : 102 KiB (0%)

  377. Language : Russian

  378. Default : No

  379. Forced : No


  380. Text #28

  381. ID : 30

  382. Format : UTF-8

  383. Codec ID : S_TEXT/UTF8

  384. Codec ID/Info : UTF-8 Plain Text

  385. Duration : 1 h 37 min

  386. Bit rate : 96 b/s

  387. Count of elements : 1573

  388. Stream size : 68.7 KiB (0%)

  389. Language : Swedish

  390. Default : No

  391. Forced : No


  392. Text #29

  393. ID : 31

  394. Format : UTF-8

  395. Codec ID : S_TEXT/UTF8

  396. Codec ID/Info : UTF-8 Plain Text

  397. Duration : 1 h 37 min

  398. Bit rate : 222 b/s

  399. Count of elements : 1584

  400. Stream size : 159 KiB (0%)

  401. Language : Thai

  402. Default : No

  403. Forced : No


  404. Text #30

  405. ID : 32

  406. Format : UTF-8

  407. Codec ID : S_TEXT/UTF8

  408. Codec ID/Info : UTF-8 Plain Text

  409. Duration : 1 h 37 min

  410. Bit rate : 94 b/s

  411. Count of elements : 1485

  412. Stream size : 67.6 KiB (0%)

  413. Language : Turkish

  414. Default : No

  415. Forced : No


  416. Text #31

  417. ID : 33

  418. Format : UTF-8

  419. Codec ID : S_TEXT/UTF8

  420. Codec ID/Info : UTF-8 Plain Text

  421. Duration : 1 h 37 min

  422. Bit rate : 151 b/s

  423. Count of elements : 1585

  424. Stream size : 108 KiB (0%)

  425. Language : Ukrainian

  426. Default : No

  427. Forced : No


  428. Text #32

  429. ID : 34

  430. Format : UTF-8

  431. Codec ID : S_TEXT/UTF8

  432. Codec ID/Info : UTF-8 Plain Text

  433. Duration : 1 h 37 min

  434. Bit rate : 120 b/s

  435. Count of elements : 1543

  436. Stream size : 85.7 KiB (0%)

  437. Language : Vietnamese

  438. Default : No

  439. Forced : No


  440. Text #33

  441. ID : 35

  442. Format : UTF-8

  443. Codec ID : S_TEXT/UTF8

  444. Codec ID/Info : UTF-8 Plain Text

  445. Duration : 1 h 37 min

  446. Bit rate : 81 b/s

  447. Count of elements : 1587

  448. Stream size : 58.3 KiB (0%)

  449. Title : Simplified

  450. Language : Chinese

  451. Default : No

  452. Forced : No


  453. Text #34

  454. ID : 36

  455. Format : UTF-8

  456. Codec ID : S_TEXT/UTF8

  457. Codec ID/Info : UTF-8 Plain Text

  458. Duration : 1 h 37 min

  459. Bit rate : 90 b/s

  460. Count of elements : 1597

  461. Stream size : 64.8 KiB (0%)

  462. Title : Traditional

  463. Language : Chinese

  464. Default : No

  465. Forced : No


  466. Menu

  467. 01:32:11.000 : en:Credits

复制代码

阿波罗10?号:太空时代的童年[中文字幕].Apollo.10.1.and.2.A.Space.Age.Childhood.2022.1080p.NF.WEBRip.DDP5.1.Atmos.x264 动画 剧情 动画电影  第2张 阿波罗10?号:太空时代的童年[中文字幕].Apollo.10.1.and.2.A.Space.Age.Childhood.2022.1080p.NF.WEBRip.DDP5.1.Atmos.x264 动画 剧情 动画电影  第3张 阿波罗10?号:太空时代的童年[中文字幕].Apollo.10.1.and.2.A.Space.Age.Childhood.2022.1080p.NF.WEBRip.DDP5.1.Atmos.x264 动画 剧情 动画电影  第4张



文件下载


除非特别注明,本文『阿波罗10?号:太空时代的童年[中文字幕].Apollo.10.1.and.2.A.Space.Age.Childhood.2022.1080p.NF.WEBRip.DDP5.1.Atmos.x264』来源于互联网机器人自动抓取,非本站原创。 浮游电影网不对本文拥有版权,如有侵犯,请联系邮箱:fuyouu#yandex.com[#换成@]投诉。我们会在15个工作日内删除。 但烦请转载时请标明出处:“本文转载于『浮游电影网』,原文地址:https://www.fuyouu.com/21064.html

评论吧骚年!

发表你的见解   

昵称*

E-mail*(建议输入,以便收到博主回复的提示邮件)

验证码*

您可以使用eMule或eMule Mod(Windows)、aMule(Win、Linux、Mac)等软件下载eD2k链接。。
eMule收藏集(.emulecollection)文件是您选中的所有链接的列表文件。eMule可以直接下载它们。
按住SHIFT键选择可以选中多个选择框。
可用文件名和大小选择器来选择文件。
文件名选择器帮您根据文件名称或后缀来选择文件。不分大小写。
符号使用:
和:空格( )、+
不包含:-
或:|
转义:一对英文引号("");
匹配开头:^
匹配结尾:$
例如:
选中所有名称中包含有“eMule”或“0.49c”字眼,但不包含有“exe”字眼的:emule|0.49c -exe
选中所有名称的开头是“eMule”,结尾是“0.49c”的:^emule 0.49c$
选中所有名称中带有“eMule 0.49c”的(必须是“eMule 0.49c”,中间没有别的字符,不能是“eMule fake 0.49c”),需要转义:"emule 0.49c"
大小选择器帮您根据文件大小选择文件。