当前位置: 首页 >> 欧美电影 >> 西部明星[中文字幕].Western.Stars.2019.2160p.WEB-DL.DTS-HD.MA.TrueHD.7.1.Atmos.DV.MKV.x265-DVSUX 13.43GB >> 正文

西部明星[中文字幕].Western.Stars.2019.2160p.WEB-DL.DTS-HD.MA.TrueHD.7.1.Atmos.DV.MKV.x265-DVSUX 13.43GB

2022年04月01日 10:26:22     电影发布:来源于网络     电影分类:欧美电影     评论(0)    

西部明星[中文字幕].Western.Stars.2019.2160p.WEB DL.DTS HD.MA.TrueHD.7.1.Atmos.DV.MKV.x265 DVSUX 13.43GB 音乐 纪录片 欧美电影  第1张

◎译 名 西部明星 / 西部之星

◎片 名 Western Stars

◎年 代 2019

◎产 地 美国

◎类 别 纪录片 / 音乐

◎语 言 英语

◎上映日期 2019-09-12(多伦多电影节) / 2019-10-25(美国)

◎IMDb链接 https://www.imdb.com/title/tt10687158/

◎豆瓣评分 8.1/10 (403人评价)

◎豆瓣链接 https://movie.douban.com/subject/34663538/

◎片 长 83分钟

◎导 演 托姆·齐穆尼 Thom Zimny (id:1301753)

布鲁斯·斯普林斯汀 Bruce Springsteen (id:1027393)

◎演 员 布鲁斯·斯普林斯汀 Bruce Springsteen (id:1027393)

Patti Scialfa Patti Scialfa (id:1023085)

◎简 介

该片也是70岁的斯普林斯汀的最新专辑的同名电影,他与《斯普林斯汀在百老汇》的导演Thom Zimny一起执导,聚焦他如今的生活、心态和对音乐和舞台的感悟,还有他那有100年历史、“充满灵性”的谷仓,他如何回头和向前看,“我花了35年除掉自己性格中那些毁灭性的东西”。

◎获奖情况 (共1项)

第67届美国音效剪辑协会奖 (2020)

金卷轴奖 最佳音乐片音乐剪辑(提名)

  1. Video

  2. ID : 1

  3. Format : HEVC

  4. Format/Info : High Efficiency Video Coding

  5. Format profile : Main [email protected]@High

  6. HDR format : Dolby Vision, Version 1.0, dvhe.05.06, BL+RPU

  7. Codec ID : V_MPEGH/ISO/HEVC

  8. Duration : 1 h 23 min

  9. Bit rate : 14.4 Mb/s

  10. Width : 3 840 pixels

  11. Height : 1 596 pixels

  12. Display aspect ratio : 2.40:1

  13. Frame rate mode : Constant

  14. Frame rate : 23.976 (24000/1001/53354) FPS

  15. Color space : YUV

  16. Chroma subsampling : 4:2:0

  17. Bit depth : 10 bits

  18. Bits/(Pixel*Frame) : 0.098

  19. Stream size : 8.37 GiB (62%)

  20. Default : Yes

  21. Forced : No


  22. Audio #1

  23. ID : 2

  24. Format : MLP FBA 16-ch

  25. Format/Info : Meridian Lossless Packing FBA with 16-channel presentation

  26. Commercial name : Dolby TrueHD with Dolby Atmos

  27. Codec ID : A_TRUEHD

  28. Duration : 1 h 23 min

  29. Bit rate mode : Variable

  30. Bit rate : 3 871 kb/s

  31. Maximum bit rate : 5 568 kb/s

  32. Channel(s) : 8 channels

  33. Channel layout : L R C LFE Ls Rs Lb Rb

  34. Sampling rate : 48.0 kHz

  35. Frame rate : 1 200.000 FPS (40 SPF)

  36. Compression mode : Lossless

  37. Stream size : 2.25 GiB (17%)

  38. Title : TrueHD 7.1 Atmos

  39. Language : English

  40. Default : Yes

  41. Forced : No

  42. Number of dynamic objects : 15

  43. Bed channel count : 1 channel

  44. Bed channel configuration : LFE


  45. Audio #2

  46. ID : 3

  47. Format : DTS XLL

  48. Format/Info : Digital Theater Systems

  49. Commercial name : DTS-HD Master Audio

  50. Codec ID : A_DTS

  51. Duration : 1 h 23 min

  52. Bit rate mode : Variable

  53. Bit rate : 3 365 kb/s

  54. Channel(s) : 8 channels

  55. Channel layout : C L R LFE Lb Rb Lss Rss

  56. Sampling rate : 48.0 kHz

  57. Frame rate : 93.750 FPS (512 SPF)

  58. Bit depth : 24 bits

  59. Compression mode : Lossless

  60. Stream size : 1.95 GiB (15%)

  61. Title : DTS-HD MA 7.1

  62. Language : English

  63. Default : No

  64. Forced : No


  65. Audio #3

  66. ID : 4

  67. Format : AC-3

  68. Format/Info : Audio Coding 3

  69. Commercial name : Dolby Digital

  70. Format settings : Dolby Surround EX

  71. Codec ID : A_AC3

  72. Duration : 1 h 23 min

  73. Bit rate mode : Constant

  74. Bit rate : 640 kb/s

  75. Channel(s) : 6 channels

  76. Channel layout : L R C LFE Ls Rs

  77. Sampling rate : 48.0 kHz

  78. Frame rate : 31.250 FPS (1536 SPF)

  79. Compression mode : Lossy

  80. Delay relative to video : 8 ms

  81. Stream size : 381 MiB (3%)

  82. Title : DD 5.1

  83. Language : English

  84. Service kind : Complete Main

  85. Default : No

  86. Forced : No


  87. Audio #4

  88. ID : 5

  89. Format : E-AC-3 JOC

  90. Format/Info : Enhanced AC-3 with Joint Object Coding

  91. Commercial name : Dolby Digital Plus with Dolby Atmos

  92. Codec ID : A_EAC3

  93. Duration : 1 h 23 min

  94. Bit rate mode : Constant

  95. Bit rate : 768 kb/s

  96. Channel(s) : 6 channels

  97. Channel layout : L R C LFE Ls Rs

  98. Sampling rate : 48.0 kHz

  99. Frame rate : 31.250 FPS (1536 SPF)

  100. Compression mode : Lossy

  101. Stream size : 457 MiB (3%)

  102. Title : DDP 5.1 Atmos

  103. Language : English

  104. Service kind : Complete Main

  105. Default : Yes

  106. Forced : No

  107. Complexity index : 16

  108. Number of dynamic objects : 15

  109. Bed channel count : 1 channel

  110. Bed channel configuration : LFE


  111. Text #1

  112. ID : 6

  113. Format : UTF-8

  114. Codec ID : S_TEXT/UTF8

  115. Codec ID/Info : UTF-8 Plain Text

  116. Duration : 1 h 18 min

  117. Bit rate : 66 b/s

  118. Count of elements : 864

  119. Stream size : 38.3 KiB (0%)

  120. Title : English

  121. Language : English

  122. Default : Yes

  123. Forced : No


  124. Text #2

  125. ID : 7

  126. Format : UTF-8

  127. Codec ID : S_TEXT/UTF8

  128. Codec ID/Info : UTF-8 Plain Text

  129. Duration : 1 h 21 min

  130. Bit rate : 12 b/s

  131. Count of elements : 269

  132. Stream size : 7.74 KiB (0%)

  133. Title : Chinese Mandarin Traditional

  134. Language : Chinese

  135. Default : No

  136. Forced : No


  137. Text #3

  138. ID : 8

  139. Format : UTF-8

  140. Codec ID : S_TEXT/UTF8

  141. Codec ID/Info : UTF-8 Plain Text

  142. Duration : 1 h 21 min

  143. Bit rate : 16 b/s

  144. Count of elements : 267

  145. Stream size : 9.78 KiB (0%)

  146. Title : Czech

  147. Language : Czech

  148. Default : No

  149. Forced : No


  150. Text #4

  151. ID : 9

  152. Format : UTF-8

  153. Codec ID : S_TEXT/UTF8

  154. Codec ID/Info : UTF-8 Plain Text

  155. Duration : 1 h 21 min

  156. Bit rate : 18 b/s

  157. Count of elements : 265

  158. Stream size : 10.8 KiB (0%)

  159. Title : Danish

  160. Language : Danish

  161. Default : No

  162. Forced : No


  163. Text #5

  164. ID : 10

  165. Format : UTF-8

  166. Codec ID : S_TEXT/UTF8

  167. Codec ID/Info : UTF-8 Plain Text

  168. Duration : 1 h 14 min

  169. Bit rate : 20 b/s

  170. Count of elements : 247

  171. Stream size : 11.4 KiB (0%)

  172. Title : German

  173. Language : German

  174. Default : No

  175. Forced : No


  176. Text #6

  177. ID : 11

  178. Format : UTF-8

  179. Codec ID : S_TEXT/UTF8

  180. Codec ID/Info : UTF-8 Plain Text

  181. Duration : 1 h 21 min

  182. Bit rate : 18 b/s

  183. Count of elements : 249

  184. Stream size : 11.3 KiB (0%)

  185. Title : Spanish Latin American

  186. Language : Spanish

  187. Default : No

  188. Forced : No


  189. Text #7

  190. ID : 12

  191. Format : UTF-8

  192. Codec ID : S_TEXT/UTF8

  193. Codec ID/Info : UTF-8 Plain Text

  194. Duration : 1 h 14 min

  195. Bit rate : 19 b/s

  196. Count of elements : 245

  197. Stream size : 10.5 KiB (0%)

  198. Title : Spanish European

  199. Language : Spanish

  200. Default : No

  201. Forced : No


  202. Text #8

  203. ID : 13

  204. Format : UTF-8

  205. Codec ID : S_TEXT/UTF8

  206. Codec ID/Info : UTF-8 Plain Text

  207. Duration : 1 h 21 min

  208. Bit rate : 18 b/s

  209. Count of elements : 267

  210. Stream size : 11.1 KiB (0%)

  211. Title : Finnish

  212. Language : Finnish

  213. Default : No

  214. Forced : No


  215. Text #9

  216. ID : 14

  217. Format : UTF-8

  218. Codec ID : S_TEXT/UTF8

  219. Codec ID/Info : UTF-8 Plain Text

  220. Duration : 1 h 21 min

  221. Bit rate : 19 b/s

  222. Count of elements : 316

  223. Stream size : 11.9 KiB (0%)

  224. Title : French European

  225. Language : French

  226. Default : No

  227. Forced : No


  228. Text #10

  229. ID : 15

  230. Format : UTF-8

  231. Codec ID : S_TEXT/UTF8

  232. Codec ID/Info : UTF-8 Plain Text

  233. Duration : 1 h 21 min

  234. Bit rate : 23 b/s

  235. Count of elements : 267

  236. Stream size : 14.3 KiB (0%)

  237. Title : Hebrew

  238. Language : Hebrew

  239. Default : No

  240. Forced : No


  241. Text #11

  242. ID : 16

  243. Format : UTF-8

  244. Codec ID : S_TEXT/UTF8

  245. Codec ID/Info : UTF-8 Plain Text

  246. Duration : 1 h 21 min

  247. Bit rate : 18 b/s

  248. Count of elements : 242

  249. Stream size : 11.0 KiB (0%)

  250. Title : Italian

  251. Language : Italian

  252. Default : No

  253. Forced : No


  254. Text #12

  255. ID : 17

  256. Format : UTF-8

  257. Codec ID : S_TEXT/UTF8

  258. Codec ID/Info : UTF-8 Plain Text

  259. Duration : 1 h 14 min

  260. Bit rate : 17 b/s

  261. Count of elements : 254

  262. Stream size : 9.50 KiB (0%)

  263. Title : Japanese

  264. Language : Japanese

  265. Default : No

  266. Forced : No


  267. Text #13

  268. ID : 18

  269. Format : UTF-8

  270. Codec ID : S_TEXT/UTF8

  271. Codec ID/Info : UTF-8 Plain Text

  272. Duration : 1 h 21 min

  273. Bit rate : 21 b/s

  274. Count of elements : 269

  275. Stream size : 12.8 KiB (0%)

  276. Title : Korean

  277. Language : Korean

  278. Default : No

  279. Forced : No


  280. Text #14

  281. ID : 19

  282. Format : UTF-8

  283. Codec ID : S_TEXT/UTF8

  284. Codec ID/Info : UTF-8 Plain Text

  285. Duration : 1 h 21 min

  286. Bit rate : 17 b/s

  287. Count of elements : 265

  288. Stream size : 10.5 KiB (0%)

  289. Title : Norwegian

  290. Language : Norwegian

  291. Default : No

  292. Forced : No


  293. Text #15

  294. ID : 20

  295. Format : UTF-8

  296. Codec ID : S_TEXT/UTF8

  297. Codec ID/Info : UTF-8 Plain Text

  298. Duration : 1 h 21 min

  299. Bit rate : 18 b/s

  300. Count of elements : 249

  301. Stream size : 11.1 KiB (0%)

  302. Title : Portuguese Brazilian

  303. Language : Portuguese

  304. Default : No

  305. Forced : No


  306. Text #16

  307. ID : 21

  308. Format : UTF-8

  309. Codec ID : S_TEXT/UTF8

  310. Codec ID/Info : UTF-8 Plain Text

  311. Duration : 1 h 21 min

  312. Bit rate : 18 b/s

  313. Count of elements : 267

  314. Stream size : 11.1 KiB (0%)

  315. Title : Portuguese European

  316. Language : Portuguese

  317. Default : No

  318. Forced : No


  319. Text #17

  320. ID : 22

  321. Format : UTF-8

  322. Codec ID : S_TEXT/UTF8

  323. Codec ID/Info : UTF-8 Plain Text

  324. Duration : 1 h 21 min

  325. Bit rate : 18 b/s

  326. Count of elements : 267

  327. Stream size : 10.8 KiB (0%)

  328. Title : Swedish

  329. Language : Swedish

  330. Default : No

  331. Forced : No


  332. Text #18

  333. ID : 23

  334. Format : UTF-8

  335. Codec ID : S_TEXT/UTF8

  336. Codec ID/Info : UTF-8 Plain Text

  337. Duration : 1 h 21 min

  338. Bit rate : 39 b/s

  339. Count of elements : 269

  340. Stream size : 23.6 KiB (0%)

  341. Title : Thai

  342. Language : Thai

  343. Default : No

  344. Forced : No


  345. Menu

  346. 00:00:00.000 : en:Chapter 01

  347. 00:03:47.143 : en:Chapter 02

  348. 00:09:10.925 : en:Chapter 03

  349. 00:15:24.132 : en:Chapter 04

  350. 00:20:37.195 : en:Chapter 05

  351. 00:25:13.596 : en:Chapter 06

  352. 00:31:13.498 : en:Chapter 07

  353. 00:37:17.862 : en:Chapter 08

  354. 00:43:57.178 : en:Chapter 09

  355. 00:48:21.151 : en:Chapter 10

  356. 00:50:20.395 : en:Chapter 11

  357. 00:58:09.406 : en:Chapter 12

  358. 01:03:03.658 : en:Chapter 13

  359. 01:09:51.066 : en:Chapter 14

  360. 01:15:57.807 : en:Chapter 15

  361. 01:18:58.863 : en:Chapter 16

复制代码

西部明星[中文字幕].Western.Stars.2019.2160p.WEB DL.DTS HD.MA.TrueHD.7.1.Atmos.DV.MKV.x265 DVSUX 13.43GB 音乐 纪录片 欧美电影  第2张 西部明星[中文字幕].Western.Stars.2019.2160p.WEB DL.DTS HD.MA.TrueHD.7.1.Atmos.DV.MKV.x265 DVSUX 13.43GB 音乐 纪录片 欧美电影  第3张 西部明星[中文字幕].Western.Stars.2019.2160p.WEB DL.DTS HD.MA.TrueHD.7.1.Atmos.DV.MKV.x265 DVSUX 13.43GB 音乐 纪录片 欧美电影  第4张




文件下载


除非特别注明,本文『西部明星[中文字幕].Western.Stars.2019.2160p.WEB-DL.DTS-HD.MA.TrueHD.7.1.Atmos.DV.MKV.x265-DVSUX 13.43GB』来源于互联网机器人自动抓取,非本站原创。 浮游电影网不对本文拥有版权,如有侵犯,请联系邮箱:fuyouu#yandex.com[#换成@]投诉。我们会在15个工作日内删除。 但烦请转载时请标明出处:“本文转载于『浮游电影网』,原文地址:https://www.fuyouu.com/21030.html

评论吧骚年!

发表你的见解   

昵称*

E-mail*(建议输入,以便收到博主回复的提示邮件)

验证码*

您可以使用eMule或eMule Mod(Windows)、aMule(Win、Linux、Mac)等软件下载eD2k链接。。
eMule收藏集(.emulecollection)文件是您选中的所有链接的列表文件。eMule可以直接下载它们。
按住SHIFT键选择可以选中多个选择框。
可用文件名和大小选择器来选择文件。
文件名选择器帮您根据文件名称或后缀来选择文件。不分大小写。
符号使用:
和:空格( )、+
不包含:-
或:|
转义:一对英文引号("");
匹配开头:^
匹配结尾:$
例如:
选中所有名称中包含有“eMule”或“0.49c”字眼,但不包含有“exe”字眼的:emule|0.49c -exe
选中所有名称的开头是“eMule”,结尾是“0.49c”的:^emule 0.49c$
选中所有名称中带有“eMule 0.49c”的(必须是“eMule 0.49c”,中间没有别的字符,不能是“eMule fake 0.49c”),需要转义:"emule 0.49c"
大小选择器帮您根据文件大小选择文件。