当前位置: 首页 >> 欧美电影 >> 惊声尖叫5[中文字幕].Scream.2022.2160p.BluRay.REMUX.HEVC.DTS-HD.MA.7.1-FGT 53.70GB >> 正文

惊声尖叫5[中文字幕].Scream.2022.2160p.BluRay.REMUX.HEVC.DTS-HD.MA.7.1-FGT 53.70GB

2022年03月31日 14:28:49     电影发布:来源于网络     电影分类:欧美电影     评论(0)    

惊声尖叫5[中文字幕].Scream.2022.2160p.BluRay.REMUX.HEVC.DTS HD.MA.7.1 FGT 53.70GB 恐怖 惊悚 欧美电影  第1张

◎译 名 惊声尖叫5 / 夺命狂呼(港) / 惊声尖叫(台) / 新版惊声尖叫 / 新惊声尖叫 / Scream 5

◎片 名 Scream

◎年 代 2022

◎产 地 美国

◎类 别 惊悚 / 恐怖

◎语 言 英语

◎上映日期 2022-01-14(美国)

◎IMDb链接 https://www.imdb.com/title/tt11245972/

◎豆瓣评分 5.8/10 (6303人评价)

◎豆瓣链接 https://movie.douban.com/subject/34984272/

◎片 长 114分钟

◎导 演 马特·贝蒂内利-奥尔平 Matt Bettinelli-Olpin (id:1337602)

泰勒·吉勒特 Tyler Gillett (id:1337603)

◎编 剧 詹姆斯·范德比尔特 James Vanderbilt (id:1321383)

盖伊·比尤西克 Guy Busick (id:1421987)

凯文·威廉姆森 Kevin Williamson (id:1032153)

◎演 员 大卫·阿奎特 David Arquette (id:1049510)

内芙·坎贝尔 Neve Campbell (id:1027828)

柯特妮·考克斯 Courteney Cox (id:1040995)

梅丽莎·巴雷拉 Melissa Barrera (id:1388770)

珍娜·奥尔特加 Jenna Ortega (id:1437862)

梅森·古丁 Mason Gooding (id:1436816)

迪兰·明奈特 Dylan Minnette (id:1171930)

玛丽·谢尔顿 Marley Shelton (id:1002691)

杰克·奎德 Jack Quaid (id:1321661)

贾思敏·萨沃伊·布朗 Jasmin Savoy Brown (id:1366455)

索尼娅·阿马尔 Sonia Ammar (id:1444793)

米奇·麦迪森 Mikey Madison (id:1362433)

凯尔·加尔纳 Kyle Gallner (id:1027808)

希瑟·玛塔拉佐 Heather Matarazzo (id:1040555)

斯基特·乌尔里奇 Skeet Ulrich (id:1004631)

布莱恩·泰勒 Brian Tyler (id:1276412)

布雷特·朱特凯维奇 Brett Jutkiewicz (id:1446098)

艾米丽·冈肖尔 Emily Gunshor (id:1444354)

◎简 介

曾被一连串残酷的杀人事件蹂躏的宁静小镇伍兹柏勒,事隔了25年,一不明杀手再度戴上鬼脸面具,对一群青少年展开虐杀,迫使小镇居民重新面对过往的秘密。

  1. Video

  2. ID : 1

  3. ID in the original source medium : 4113 (0x1011)

  4. Format : HEVC

  5. Format/Info : High Efficiency Video Coding

  6. Format profile : Main [email protected]@High

  7. HDR format : Dolby Vision, Version 1.0, dvhe.07.06, BL+EL+RPU, Blu-ray compatible / SMPTE ST 2086, HDR10 compatible

  8. Codec ID : V_MPEGH/ISO/HEVC

  9. Duration : 1 h 54 min

  10. Bit rate : 55.7 Mb/s

  11. Width : 3 840 pixels

  12. Height : 2 160 pixels

  13. Display aspect ratio : 16:9

  14. Frame rate mode : Constant

  15. Frame rate : 23.976 (24000/1001/53354) FPS

  16. Color space : YUV

  17. Chroma subsampling : 4:2:0 (Type 2)

  18. Bit depth : 10 bits

  19. Bits/(Pixel*Frame) : 0.280

  20. Stream size : 44.5 GiB (83%)

  21. Language : English

  22. Default : No

  23. Forced : No

  24. Color range : Limited

  25. Color primaries : BT.2020

  26. Transfer characteristics : PQ

  27. Matrix coefficients : BT.2020 non-constant

  28. Mastering display color primaries : Display P3

  29. Mastering display luminance : min: 0.0001 cd/m2, max: 1000 cd/m2

  30. Maximum Content Light Level : 192 cd/m2

  31. Maximum Frame-Average Light Level : 82 cd/m2

  32. Original source medium : Blu-ray


  33. Audio #1

  34. ID : 2

  35. ID in the original source medium : 4352 (0x1100)

  36. Format : DTS XLL

  37. Format/Info : Digital Theater Systems

  38. Commercial name : DTS-HD Master Audio

  39. Codec ID : A_DTS

  40. Duration : 1 h 54 min

  41. Bit rate mode : Variable

  42. Bit rate : 4 374 kb/s

  43. Channel(s) : 8 channels

  44. Channel layout : C L R LFE Lb Rb Lss Rss

  45. Sampling rate : 48.0 kHz

  46. Frame rate : 93.750 FPS (512 SPF)

  47. Bit depth : 24 bits

  48. Compression mode : Lossless

  49. Stream size : 3.49 GiB (7%)

  50. Title : DTS-HD MA 7.1

  51. Language : English

  52. Default : Yes

  53. Forced : No

  54. Original source medium : Blu-ray


  55. Audio #2

  56. ID : 3

  57. Format : AC-3

  58. Format/Info : Audio Coding 3

  59. Commercial name : Dolby Digital

  60. Codec ID : A_AC3

  61. Duration : 1 h 54 min

  62. Bit rate mode : Constant

  63. Bit rate : 640 kb/s

  64. Channel(s) : 6 channels

  65. Channel layout : L R C LFE Ls Rs

  66. Sampling rate : 48.0 kHz

  67. Frame rate : 31.250 FPS (1536 SPF)

  68. Compression mode : Lossy

  69. Stream size : 523 MiB (1%)

  70. Title : DD 5.1

  71. Language : English

  72. Service kind : Complete Main

  73. Default : No

  74. Forced : No


  75. Audio #3

  76. ID : 4

  77. ID in the original source medium : 4353 (0x1101)

  78. Format : AC-3

  79. Format/Info : Audio Coding 3

  80. Commercial name : Dolby Digital

  81. Codec ID : A_AC3

  82. Duration : 1 h 54 min

  83. Bit rate mode : Constant

  84. Bit rate : 640 kb/s

  85. Channel(s) : 6 channels

  86. Channel layout : L R C LFE Ls Rs

  87. Sampling rate : 48.0 kHz

  88. Frame rate : 31.250 FPS (1536 SPF)

  89. Compression mode : Lossy

  90. Stream size : 523 MiB (1%)

  91. Title : DD 5.1

  92. Language : English

  93. Service kind : Complete Main

  94. Default : No

  95. Forced : No

  96. Original source medium : Blu-ray


  97. Audio #4

  98. ID : 5

  99. ID in the original source medium : 4354 (0x1102)

  100. Format : AC-3

  101. Format/Info : Audio Coding 3

  102. Commercial name : Dolby Digital

  103. Codec ID : A_AC3

  104. Duration : 1 h 54 min

  105. Bit rate mode : Constant

  106. Bit rate : 640 kb/s

  107. Channel(s) : 6 channels

  108. Channel layout : L R C LFE Ls Rs

  109. Sampling rate : 48.0 kHz

  110. Frame rate : 31.250 FPS (1536 SPF)

  111. Compression mode : Lossy

  112. Stream size : 523 MiB (1%)

  113. Title : DD 5.1

  114. Language : German

  115. Service kind : Complete Main

  116. Default : No

  117. Forced : No

  118. Original source medium : Blu-ray


  119. Audio #5

  120. ID : 6

  121. ID in the original source medium : 4355 (0x1103)

  122. Format : AC-3

  123. Format/Info : Audio Coding 3

  124. Commercial name : Dolby Digital

  125. Codec ID : A_AC3

  126. Duration : 1 h 54 min

  127. Bit rate mode : Constant

  128. Bit rate : 640 kb/s

  129. Channel(s) : 6 channels

  130. Channel layout : L R C LFE Ls Rs

  131. Sampling rate : 48.0 kHz

  132. Frame rate : 31.250 FPS (1536 SPF)

  133. Compression mode : Lossy

  134. Stream size : 523 MiB (1%)

  135. Title : DD 5.1

  136. Language : Spanish

  137. Service kind : Complete Main

  138. Default : No

  139. Forced : No

  140. Original source medium : Blu-ray


  141. Audio #6

  142. ID : 7

  143. ID in the original source medium : 4356 (0x1104)

  144. Format : AC-3

  145. Format/Info : Audio Coding 3

  146. Commercial name : Dolby Digital

  147. Codec ID : A_AC3

  148. Duration : 1 h 54 min

  149. Bit rate mode : Constant

  150. Bit rate : 640 kb/s

  151. Channel(s) : 6 channels

  152. Channel layout : L R C LFE Ls Rs

  153. Sampling rate : 48.0 kHz

  154. Frame rate : 31.250 FPS (1536 SPF)

  155. Compression mode : Lossy

  156. Stream size : 523 MiB (1%)

  157. Title : DD 5.1

  158. Language : Spanish

  159. Service kind : Complete Main

  160. Default : No

  161. Forced : No

  162. Original source medium : Blu-ray


  163. Audio #7

  164. ID : 8

  165. ID in the original source medium : 4357 (0x1105)

  166. Format : AC-3

  167. Format/Info : Audio Coding 3

  168. Commercial name : Dolby Digital

  169. Codec ID : A_AC3

  170. Duration : 1 h 54 min

  171. Bit rate mode : Constant

  172. Bit rate : 640 kb/s

  173. Channel(s) : 6 channels

  174. Channel layout : L R C LFE Ls Rs

  175. Sampling rate : 48.0 kHz

  176. Frame rate : 31.250 FPS (1536 SPF)

  177. Compression mode : Lossy

  178. Stream size : 523 MiB (1%)

  179. Title : DD 5.1

  180. Language : French

  181. Service kind : Complete Main

  182. Default : No

  183. Forced : No

  184. Original source medium : Blu-ray


  185. Audio #8

  186. ID : 9

  187. ID in the original source medium : 4358 (0x1106)

  188. Format : AC-3

  189. Format/Info : Audio Coding 3

  190. Commercial name : Dolby Digital

  191. Codec ID : A_AC3

  192. Duration : 1 h 54 min

  193. Bit rate mode : Constant

  194. Bit rate : 640 kb/s

  195. Channel(s) : 6 channels

  196. Channel layout : L R C LFE Ls Rs

  197. Sampling rate : 48.0 kHz

  198. Frame rate : 31.250 FPS (1536 SPF)

  199. Compression mode : Lossy

  200. Stream size : 523 MiB (1%)

  201. Title : DD 5.1

  202. Language : French

  203. Service kind : Complete Main

  204. Default : No

  205. Forced : No

  206. Original source medium : Blu-ray


  207. Audio #9

  208. ID : 10

  209. ID in the original source medium : 4359 (0x1107)

  210. Format : AC-3

  211. Format/Info : Audio Coding 3

  212. Commercial name : Dolby Digital

  213. Codec ID : A_AC3

  214. Duration : 1 h 54 min

  215. Bit rate mode : Constant

  216. Bit rate : 640 kb/s

  217. Channel(s) : 6 channels

  218. Channel layout : L R C LFE Ls Rs

  219. Sampling rate : 48.0 kHz

  220. Frame rate : 31.250 FPS (1536 SPF)

  221. Compression mode : Lossy

  222. Stream size : 523 MiB (1%)

  223. Title : DD 5.1

  224. Language : Italian

  225. Service kind : Complete Main

  226. Default : No

  227. Forced : No

  228. Original source medium : Blu-ray


  229. Audio #10

  230. ID : 11

  231. ID in the original source medium : 4360 (0x1108)

  232. Format : AC-3

  233. Format/Info : Audio Coding 3

  234. Commercial name : Dolby Digital

  235. Codec ID : A_AC3

  236. Duration : 1 h 54 min

  237. Bit rate mode : Constant

  238. Bit rate : 640 kb/s

  239. Channel(s) : 6 channels

  240. Channel layout : L R C LFE Ls Rs

  241. Sampling rate : 48.0 kHz

  242. Frame rate : 31.250 FPS (1536 SPF)

  243. Compression mode : Lossy

  244. Stream size : 523 MiB (1%)

  245. Title : DD 5.1

  246. Language : Japanese

  247. Service kind : Complete Main

  248. Default : No

  249. Forced : No

  250. Original source medium : Blu-ray


  251. Audio #11

  252. ID : 12

  253. ID in the original source medium : 4361 (0x1109)

  254. Format : AC-3

  255. Format/Info : Audio Coding 3

  256. Commercial name : Dolby Digital

  257. Codec ID : A_AC3

  258. Duration : 1 h 54 min

  259. Bit rate mode : Constant

  260. Bit rate : 640 kb/s

  261. Channel(s) : 6 channels

  262. Channel layout : L R C LFE Ls Rs

  263. Sampling rate : 48.0 kHz

  264. Frame rate : 31.250 FPS (1536 SPF)

  265. Compression mode : Lossy

  266. Stream size : 523 MiB (1%)

  267. Title : DD 5.1

  268. Language : Russian

  269. Service kind : Complete Main

  270. Default : No

  271. Forced : No

  272. Original source medium : Blu-ray


  273. Audio #12

  274. ID : 13

  275. ID in the original source medium : 4362 (0x110A)

  276. Format : AC-3

  277. Format/Info : Audio Coding 3

  278. Commercial name : Dolby Digital

  279. Codec ID : A_AC3

  280. Duration : 1 h 54 min

  281. Bit rate mode : Constant

  282. Bit rate : 224 kb/s

  283. Channel(s) : 2 channels

  284. Channel layout : L R

  285. Sampling rate : 48.0 kHz

  286. Frame rate : 31.250 FPS (1536 SPF)

  287. Compression mode : Lossy

  288. Stream size : 183 MiB (0%)

  289. Title : DD 2.0

  290. Language : English

  291. Service kind : Complete Main

  292. Default : No

  293. Forced : No

  294. Original source medium : Blu-ray


  295. Text #1

  296. ID : 14

  297. Format : UTF-8

  298. Codec ID : S_TEXT/UTF8

  299. Codec ID/Info : UTF-8 Plain Text

  300. Duration : 1 h 46 min

  301. Bit rate : 61 b/s

  302. Count of elements : 1465

  303. Stream size : 47.6 KiB (0%)

  304. Language : English

  305. Default : Yes

  306. Forced : No


  307. Text #2

  308. ID : 15

  309. Format : UTF-8

  310. Codec ID : S_TEXT/UTF8

  311. Codec ID/Info : UTF-8 Plain Text

  312. Duration : 1 h 53 min

  313. Bit rate : 62 b/s

  314. Count of elements : 1626

  315. Stream size : 51.6 KiB (0%)

  316. Title : SDH

  317. Language : English

  318. Default : No

  319. Forced : No


  320. Text #3

  321. ID : 16

  322. ID in the original source medium : 4768 (0x12A0)

  323. Format : PGS

  324. Muxing mode : zlib

  325. Codec ID : S_HDMV/PGS

  326. Codec ID/Info : Picture based subtitle format used on BDs/HD-DVDs

  327. Duration : 1 h 46 min

  328. Bit rate : 41.5 kb/s

  329. Count of elements : 2954

  330. Stream size : 31.5 MiB (0%)

  331. Language : English

  332. Default : No

  333. Forced : No

  334. Original source medium : Blu-ray


  335. Text #4

  336. ID : 17

  337. ID in the original source medium : 4769 (0x12A1)

  338. Format : PGS

  339. Muxing mode : zlib

  340. Codec ID : S_HDMV/PGS

  341. Codec ID/Info : Picture based subtitle format used on BDs/HD-DVDs

  342. Duration : 1 h 53 min

  343. Bit rate : 43.2 kb/s

  344. Count of elements : 3283

  345. Stream size : 35.1 MiB (0%)

  346. Language : English

  347. Default : No

  348. Forced : No

  349. Original source medium : Blu-ray


  350. Text #5

  351. ID : 18

  352. ID in the original source medium : 4770 (0x12A2)

  353. Format : PGS

  354. Muxing mode : zlib

  355. Codec ID : S_HDMV/PGS

  356. Codec ID/Info : Picture based subtitle format used on BDs/HD-DVDs

  357. Duration : 1 h 53 min

  358. Bit rate : 31.4 kb/s

  359. Count of elements : 2985

  360. Stream size : 25.5 MiB (0%)

  361. Language : Chinese

  362. Default : No

  363. Forced : No

  364. Original source medium : Blu-ray


  365. Text #6

  366. ID : 19

  367. ID in the original source medium : 4771 (0x12A3)

  368. Format : PGS

  369. Muxing mode : zlib

  370. Codec ID : S_HDMV/PGS

  371. Codec ID/Info : Picture based subtitle format used on BDs/HD-DVDs

  372. Duration : 1 h 53 min

  373. Bit rate : 38.7 kb/s

  374. Count of elements : 2845

  375. Stream size : 31.4 MiB (0%)

  376. Language : German

  377. Default : No

  378. Forced : No

  379. Original source medium : Blu-ray


  380. Text #7

  381. ID : 20

  382. ID in the original source medium : 4771 (0x12A3)

  383. Format : PGS

  384. Muxing mode : zlib

  385. Codec ID : S_HDMV/PGS

  386. Codec ID/Info : Picture based subtitle format used on BDs/HD-DVDs

  387. Duration : 1 h 53 min

  388. Bit rate : 1 127 b/s

  389. Count of elements : 98

  390. Stream size : 936 KiB (0%)

  391. Language : German

  392. Default : No

  393. Forced : No

  394. Original source medium : Blu-ray


  395. Text #8

  396. ID : 21

  397. ID in the original source medium : 4772 (0x12A4)

  398. Format : PGS

  399. Muxing mode : zlib

  400. Codec ID : S_HDMV/PGS

  401. Codec ID/Info : Picture based subtitle format used on BDs/HD-DVDs

  402. Duration : 1 h 53 min

  403. Bit rate : 38.3 kb/s

  404. Count of elements : 3031

  405. Stream size : 31.0 MiB (0%)

  406. Language : Spanish

  407. Default : No

  408. Forced : No

  409. Original source medium : Blu-ray


  410. Text #9

  411. ID : 22

  412. ID in the original source medium : 4772 (0x12A4)

  413. Format : PGS

  414. Muxing mode : zlib

  415. Codec ID : S_HDMV/PGS

  416. Codec ID/Info : Picture based subtitle format used on BDs/HD-DVDs

  417. Duration : 1 h 53 min

  418. Bit rate : 1 059 b/s

  419. Count of elements : 90

  420. Stream size : 879 KiB (0%)

  421. Language : Spanish

  422. Default : No

  423. Forced : No

  424. Original source medium : Blu-ray


  425. Text #10

  426. ID : 23

  427. ID in the original source medium : 4773 (0x12A5)

  428. Format : PGS

  429. Muxing mode : zlib

  430. Codec ID : S_HDMV/PGS

  431. Codec ID/Info : Picture based subtitle format used on BDs/HD-DVDs

  432. Duration : 1 h 53 min

  433. Bit rate : 34.4 kb/s

  434. Count of elements : 3027

  435. Stream size : 27.9 MiB (0%)

  436. Language : Spanish

  437. Default : No

  438. Forced : No

  439. Original source medium : Blu-ray


  440. Text #11

  441. ID : 24

  442. ID in the original source medium : 4773 (0x12A5)

  443. Format : PGS

  444. Muxing mode : zlib

  445. Codec ID : S_HDMV/PGS

  446. Codec ID/Info : Picture based subtitle format used on BDs/HD-DVDs

  447. Duration : 1 h 53 min

  448. Bit rate : 1 093 b/s

  449. Count of elements : 96

  450. Stream size : 907 KiB (0%)

  451. Language : Spanish

  452. Default : No

  453. Forced : No

  454. Original source medium : Blu-ray


  455. Text #12

  456. ID : 25

  457. ID in the original source medium : 4774 (0x12A6)

  458. Format : PGS

  459. Muxing mode : zlib

  460. Codec ID : S_HDMV/PGS

  461. Codec ID/Info : Picture based subtitle format used on BDs/HD-DVDs

  462. Duration : 1 h 53 min

  463. Bit rate : 32.4 kb/s

  464. Count of elements : 2797

  465. Stream size : 26.3 MiB (0%)

  466. Language : French

  467. Default : No

  468. Forced : No

  469. Original source medium : Blu-ray


  470. Text #13

  471. ID : 26

  472. ID in the original source medium : 4774 (0x12A6)

  473. Format : PGS

  474. Muxing mode : zlib

  475. Codec ID : S_HDMV/PGS

  476. Codec ID/Info : Picture based subtitle format used on BDs/HD-DVDs

  477. Duration : 1 h 53 min

  478. Bit rate : 892 b/s

  479. Count of elements : 94

  480. Stream size : 740 KiB (0%)

  481. Language : French

  482. Default : No

  483. Forced : No

  484. Original source medium : Blu-ray


  485. Text #14

  486. ID : 27

  487. ID in the original source medium : 4775 (0x12A7)

  488. Format : PGS

  489. Muxing mode : zlib

  490. Codec ID : S_HDMV/PGS

  491. Codec ID/Info : Picture based subtitle format used on BDs/HD-DVDs

  492. Duration : 1 h 53 min

  493. Bit rate : 36.8 kb/s

  494. Count of elements : 3011

  495. Stream size : 29.8 MiB (0%)

  496. Language : French

  497. Default : No

  498. Forced : No

  499. Original source medium : Blu-ray


  500. Text #15

  501. ID : 28

  502. ID in the original source medium : 4775 (0x12A7)

  503. Format : PGS

  504. Muxing mode : zlib

  505. Codec ID : S_HDMV/PGS

  506. Codec ID/Info : Picture based subtitle format used on BDs/HD-DVDs

  507. Duration : 1 h 53 min

  508. Bit rate : 1 139 b/s

  509. Count of elements : 102

  510. Stream size : 946 KiB (0%)

  511. Language : French

  512. Default : No

  513. Forced : No

  514. Original source medium : Blu-ray


  515. Text #16

  516. ID : 29

  517. ID in the original source medium : 4776 (0x12A8)

  518. Format : PGS

  519. Muxing mode : zlib

  520. Codec ID : S_HDMV/PGS

  521. Codec ID/Info : Picture based subtitle format used on BDs/HD-DVDs

  522. Duration : 1 h 53 min

  523. Bit rate : 34.8 kb/s

  524. Count of elements : 2929

  525. Stream size : 28.2 MiB (0%)

  526. Language : Italian

  527. Default : No

  528. Forced : No

  529. Original source medium : Blu-ray


  530. Text #17

  531. ID : 30

  532. ID in the original source medium : 4776 (0x12A8)

  533. Format : PGS

  534. Muxing mode : zlib

  535. Codec ID : S_HDMV/PGS

  536. Codec ID/Info : Picture based subtitle format used on BDs/HD-DVDs

  537. Duration : 1 h 53 min

  538. Bit rate : 1 008 b/s

  539. Count of elements : 90

  540. Stream size : 837 KiB (0%)

  541. Language : Italian

  542. Default : No

  543. Forced : No

  544. Original source medium : Blu-ray


  545. Text #18

  546. ID : 31

  547. ID in the original source medium : 4777 (0x12A9)

  548. Format : PGS

  549. Muxing mode : zlib

  550. Codec ID : S_HDMV/PGS

  551. Codec ID/Info : Picture based subtitle format used on BDs/HD-DVDs

  552. Duration : 1 h 47 min

  553. Bit rate : 26.6 kb/s

  554. Count of elements : 3049

  555. Stream size : 20.4 MiB (0%)

  556. Language : Japanese

  557. Default : No

  558. Forced : No

  559. Original source medium : Blu-ray


  560. Text #19

  561. ID : 32

  562. ID in the original source medium : 4778 (0x12AA)

  563. Format : PGS

  564. Muxing mode : zlib

  565. Codec ID : S_HDMV/PGS

  566. Codec ID/Info : Picture based subtitle format used on BDs/HD-DVDs

  567. Duration : 1 h 53 min

  568. Bit rate : 27.1 kb/s

  569. Count of elements : 3045

  570. Stream size : 21.9 MiB (0%)

  571. Language : Korean

  572. Default : No

  573. Forced : No

  574. Original source medium : Blu-ray


  575. Text #20

  576. ID : 33

  577. ID in the original source medium : 4779 (0x12AB)

  578. Format : PGS

  579. Muxing mode : zlib

  580. Codec ID : S_HDMV/PGS

  581. Codec ID/Info : Picture based subtitle format used on BDs/HD-DVDs

  582. Duration : 1 h 53 min

  583. Bit rate : 33.6 kb/s

  584. Count of elements : 2235

  585. Stream size : 27.2 MiB (0%)

  586. Language : Dutch

  587. Default : No

  588. Forced : No

  589. Original source medium : Blu-ray


  590. Text #21

  591. ID : 34

  592. ID in the original source medium : 4780 (0x12AC)

  593. Format : PGS

  594. Muxing mode : zlib

  595. Codec ID : S_HDMV/PGS

  596. Codec ID/Info : Picture based subtitle format used on BDs/HD-DVDs

  597. Duration : 1 h 53 min

  598. Bit rate : 36.8 kb/s

  599. Count of elements : 2995

  600. Stream size : 29.8 MiB (0%)

  601. Language : Russian

  602. Default : No

  603. Forced : No

  604. Original source medium : Blu-ray


  605. Text #22

  606. ID : 35

  607. ID in the original source medium : 4780 (0x12AC)

  608. Format : PGS

  609. Muxing mode : zlib

  610. Codec ID : S_HDMV/PGS

  611. Codec ID/Info : Picture based subtitle format used on BDs/HD-DVDs

  612. Duration : 1 h 53 min

  613. Bit rate : 1 267 b/s

  614. Count of elements : 110

  615. Stream size : 1.03 MiB (0%)

  616. Language : Russian

  617. Default : No

  618. Forced : No

  619. Original source medium : Blu-ray


  620. Text #23

  621. ID : 36

  622. ID in the original source medium : 4781 (0x12AD)

  623. Format : PGS

  624. Muxing mode : zlib

  625. Codec ID : S_HDMV/PGS

  626. Codec ID/Info : Picture based subtitle format used on BDs/HD-DVDs

  627. Duration : 1 h 53 min

  628. Bit rate : 33.6 kb/s

  629. Count of elements : 2983

  630. Stream size : 27.2 MiB (0%)

  631. Language : Thai

  632. Default : No

  633. Forced : No

  634. Original source medium : Blu-ray


  635. Text #24

  636. ID : 37

  637. ID in the original source medium : 4782 (0x12AE)

  638. Format : PGS

  639. Muxing mode : zlib

  640. Codec ID : S_HDMV/PGS

  641. Codec ID/Info : Picture based subtitle format used on BDs/HD-DVDs

  642. Duration : 1 h 54 min

  643. Bit rate : 89.6 kb/s

  644. Count of elements : 4704

  645. Stream size : 73.2 MiB (0%)

  646. Language : English

  647. Default : No

  648. Forced : No

  649. Original source medium : Blu-ray


  650. Text #25

  651. ID : 38

  652. ID in the original source medium : 4783 (0x12AF)

  653. Format : PGS

  654. Muxing mode : zlib

  655. Codec ID : S_HDMV/PGS

  656. Codec ID/Info : Picture based subtitle format used on BDs/HD-DVDs

  657. Duration : 1 h 54 min

  658. Bit rate : 77.1 kb/s

  659. Count of elements : 4394

  660. Stream size : 63.0 MiB (0%)

  661. Language : German

  662. Default : No

  663. Forced : No

  664. Original source medium : Blu-ray


  665. Text #26

  666. ID : 39

  667. ID in the original source medium : 4784 (0x12B0)

  668. Format : PGS

  669. Muxing mode : zlib

  670. Codec ID : S_HDMV/PGS

  671. Codec ID/Info : Picture based subtitle format used on BDs/HD-DVDs

  672. Duration : 1 h 54 min

  673. Bit rate : 75.0 kb/s

  674. Count of elements : 4507

  675. Stream size : 61.3 MiB (0%)

  676. Language : Spanish

  677. Default : No

  678. Forced : No

  679. Original source medium : Blu-ray


  680. Text #27

  681. ID : 40

  682. ID in the original source medium : 4785 (0x12B1)

  683. Format : PGS

  684. Muxing mode : zlib

  685. Codec ID : S_HDMV/PGS

  686. Codec ID/Info : Picture based subtitle format used on BDs/HD-DVDs

  687. Duration : 1 h 54 min

  688. Bit rate : 74.4 kb/s

  689. Count of elements : 4231

  690. Stream size : 60.8 MiB (0%)

  691. Language : Spanish

  692. Default : No

  693. Forced : No

  694. Original source medium : Blu-ray


  695. Text #28

  696. ID : 41

  697. ID in the original source medium : 4786 (0x12B2)

  698. Format : PGS

  699. Muxing mode : zlib

  700. Codec ID : S_HDMV/PGS

  701. Codec ID/Info : Picture based subtitle format used on BDs/HD-DVDs

  702. Duration : 1 h 54 min

  703. Bit rate : 74.4 kb/s

  704. Count of elements : 4670

  705. Stream size : 60.8 MiB (0%)

  706. Language : French

  707. Default : No

  708. Forced : No

  709. Original source medium : Blu-ray


  710. Text #29

  711. ID : 42

  712. ID in the original source medium : 4787 (0x12B3)

  713. Format : PGS

  714. Muxing mode : zlib

  715. Codec ID : S_HDMV/PGS

  716. Codec ID/Info : Picture based subtitle format used on BDs/HD-DVDs

  717. Duration : 1 h 54 min

  718. Bit rate : 79.4 kb/s

  719. Count of elements : 4652

  720. Stream size : 64.9 MiB (0%)

  721. Language : French

  722. Default : No

  723. Forced : No

  724. Original source medium : Blu-ray


  725. Text #30

  726. ID : 43

  727. ID in the original source medium : 4788 (0x12B4)

  728. Format : PGS

  729. Muxing mode : zlib

  730. Codec ID : S_HDMV/PGS

  731. Codec ID/Info : Picture based subtitle format used on BDs/HD-DVDs

  732. Duration : 1 h 54 min

  733. Bit rate : 72.8 kb/s

  734. Count of elements : 4654

  735. Stream size : 59.5 MiB (0%)

  736. Language : Italian

  737. Default : No

  738. Forced : No

  739. Original source medium : Blu-ray


  740. Text #31

  741. ID : 44

  742. ID in the original source medium : 4789 (0x12B5)

  743. Format : PGS

  744. Muxing mode : zlib

  745. Codec ID : S_HDMV/PGS

  746. Codec ID/Info : Picture based subtitle format used on BDs/HD-DVDs

  747. Duration : 1 h 54 min

  748. Bit rate : 49.5 kb/s

  749. Count of elements : 4132

  750. Stream size : 40.4 MiB (0%)

  751. Language : Japanese

  752. Default : No

  753. Forced : No

  754. Original source medium : Blu-ray


  755. Text #32

  756. ID : 45

  757. ID in the original source medium : 4790 (0x12B6)

  758. Format : PGS

  759. Muxing mode : zlib

  760. Codec ID : S_HDMV/PGS

  761. Codec ID/Info : Picture based subtitle format used on BDs/HD-DVDs

  762. Duration : 1 h 54 min

  763. Bit rate : 68.1 kb/s

  764. Count of elements : 4706

  765. Stream size : 55.7 MiB (0%)

  766. Language : Korean

  767. Default : No

  768. Forced : No

  769. Original source medium : Blu-ray


  770. Text #33

  771. ID : 46

  772. ID in the original source medium : 4791 (0x12B7)

  773. Format : PGS

  774. Muxing mode : zlib

  775. Codec ID : S_HDMV/PGS

  776. Codec ID/Info : Picture based subtitle format used on BDs/HD-DVDs

  777. Duration : 1 h 47 min

  778. Bit rate : 946 b/s

  779. Count of elements : 106

  780. Stream size : 743 KiB (0%)

  781. Language : Japanese

  782. Default : No

  783. Forced : No

  784. Original source medium : Blu-ray


  785. Menu

  786. 00:00:00.000 : en:Chapter 01

  787. 00:11:18.636 : en:Chapter 02

  788. 00:19:12.568 : en:Chapter 03

  789. 00:31:06.364 : en:Chapter 04

  790. 00:38:23.467 : en:Chapter 05

  791. 00:44:21.492 : en:Chapter 06

  792. 00:53:05.599 : en:Chapter 07

  793. 00:59:44.372 : en:Chapter 08

  794. 01:08:48.582 : en:Chapter 09

  795. 01:16:27.374 : en:Chapter 10

  796. 01:26:17.630 : en:Chapter 11

  797. 01:38:30.446 : en:Chapter 12

  798. 01:48:02.684 : en:Chapter 13

复制代码

惊声尖叫5[中文字幕].Scream.2022.2160p.BluRay.REMUX.HEVC.DTS HD.MA.7.1 FGT 53.70GB 恐怖 惊悚 欧美电影  第2张 惊声尖叫5[中文字幕].Scream.2022.2160p.BluRay.REMUX.HEVC.DTS HD.MA.7.1 FGT 53.70GB 恐怖 惊悚 欧美电影  第3张 惊声尖叫5[中文字幕].Scream.2022.2160p.BluRay.REMUX.HEVC.DTS HD.MA.7.1 FGT 53.70GB 恐怖 惊悚 欧美电影  第4张




文件下载


除非特别注明,本文『惊声尖叫5[中文字幕].Scream.2022.2160p.BluRay.REMUX.HEVC.DTS-HD.MA.7.1-FGT 53.70GB』来源于互联网机器人自动抓取,非本站原创。 浮游电影网不对本文拥有版权,如有侵犯,请联系邮箱:fuyouu#yandex.com[#换成@]投诉。我们会在15个工作日内删除。 但烦请转载时请标明出处:“本文转载于『浮游电影网』,原文地址:https://www.fuyouu.com/21005.html

评论吧骚年!

发表你的见解   

昵称*

E-mail*(建议输入,以便收到博主回复的提示邮件)

验证码*

您可以使用eMule或eMule Mod(Windows)、aMule(Win、Linux、Mac)等软件下载eD2k链接。。
eMule收藏集(.emulecollection)文件是您选中的所有链接的列表文件。eMule可以直接下载它们。
按住SHIFT键选择可以选中多个选择框。
可用文件名和大小选择器来选择文件。
文件名选择器帮您根据文件名称或后缀来选择文件。不分大小写。
符号使用:
和:空格( )、+
不包含:-
或:|
转义:一对英文引号("");
匹配开头:^
匹配结尾:$
例如:
选中所有名称中包含有“eMule”或“0.49c”字眼,但不包含有“exe”字眼的:emule|0.49c -exe
选中所有名称的开头是“eMule”,结尾是“0.49c”的:^emule 0.49c$
选中所有名称中带有“eMule 0.49c”的(必须是“eMule 0.49c”,中间没有别的字符,不能是“eMule fake 0.49c”),需要转义:"emule 0.49c"
大小选择器帮您根据文件大小选择文件。