当前位置: 首页 >> 动画电影 >> 龙和雀斑公主[中文字幕].Belle.2021.720p.BluRay.x264-HAiKU 3.69GB >> 正文

龙和雀斑公主[中文字幕].Belle.2021.720p.BluRay.x264-HAiKU 3.69GB

2022年03月31日 14:27:35     电影发布:来源于网络     电影分类:动画电影     评论(0)    

龙和雀斑公主[中文字幕].Belle.2021.720p.BluRay.x264 HAiKU 3.69GB 冒险 动画 科幻 动画电影  第1张

◎译 名 龙和雀斑公主 / 龙与雀斑公主(港 / 台) / Belle / Belle: The Princess of Dragons and Freckles / Ry? to sobakasu no hime

◎片 名 竜とそばかすの姫

◎年 代 2021

◎产 地 日本

◎类 别 科幻 / 动画 / 冒险

◎语 言 日语

◎上映日期 2021-07-15(戛纳电影节) / 2021-07-16(日本)

◎IMDb链接 https://www.imdb.com/title/tt13651628/

◎豆瓣评分 6.2/10 (5927人评价)

◎豆瓣链接 https://movie.douban.com/subject/35287908/

◎片 长 122分钟

◎导 演 细田守 Mamoru Hosoda (id:1274299)

◎编 剧 细田守 Mamoru Hosoda (id:1274299)

◎演 员 中村佳穗 Kaho Nakamura (id:1466978)

佐藤健 Takeru Satoh (id:1227580)

成田凌 Ryo Narita (id:1345900)

染谷将太 Sh?ta Sometani (id:1315737)

玉城蒂娜 Tina Tamashiro (id:1339636)

几田莉拉 Ikura (id:1466979)

森川智之 Toshiyuki Morikawa (id:1008108)

津田健次郎 Kenjir? Tsuda (id:1194806)

小山茉美 Mami Koyama (id:1017019)

宫野真守 Mamoru Miyano (id:1018576)

森山良子 Ryoko Moriyama (id:1016345)

役所广司 K?ji Yakusho (id:1165478)

伊豆田莉奈 Rina Izuta (id:1349597)

川村元气 Genki Kawamura (id:1345696)

岩崎太整 Taisei Iwasaki (id:1330337)

◎简 介

17岁的高中女生铃年幼丧母,因怨恨母亲为了救一个陌生的孩子而离开了自己,曾经很喜欢唱歌的她,变得郁郁寡欢,不再开口。然而一次偶然的机会,让她进入了有50亿用户的虚拟世界U中,在这里,她又开始自然奔放的歌唱,并迅速走红,化身成为了全球最受欢迎的网络歌姬,现实世界中那个脸上长着雀斑,缺乏自信,找不到自己位置的铃,成功躲到了虚拟世界中光鲜亮丽的面具人格贝儿的后面。正当她踌躇满志的站上了U世界最大演唱会的舞台时,真正的挑战降临了,突然出现的一条神秘的龙破坏了演唱会。龙到底是谁,为什么他的身上布满了伤痕?铃在探寻真相的路上,唤醒了自身的勇气和力量,用爱和歌声战胜了挑战,和妈妈达成了理解的同时,也终于实现了她的自我救赎。

◎获奖情况 (共7项)

第45届日本电影学院奖 (2022)

最佳动画片(提名)

最佳配乐

第49届动画安妮奖 (2022)

最佳独立动画长片(提名)

最佳导演(提名)

└──细田守 (id:1274299)

最佳编剧(提名)

└──细田守 (id:1274299)

最佳制作(提名)

最佳动画效果(提名)

  1. Video

  2. ID : 1

  3. Format : AVC

  4. Format/Info : Advanced Video Codec

  5. Format profile : [email protected]

  6. Format settings : CABAC / 12 Ref Frames

  7. Format settings, CABAC : Yes

  8. Format settings, Reference frames : 12 frames

  9. Codec ID : V_MPEG4/ISO/AVC

  10. Duration : 2 h 1 min

  11. Bit rate : 3 691 kb/s

  12. Width : 1 280 pixels

  13. Height : 536 pixels

  14. Display aspect ratio : 2.40:1

  15. Frame rate mode : Constant

  16. Frame rate : 23.976 (24000/1001/53354) FPS

  17. Color space : YUV

  18. Chroma subsampling : 4:2:0

  19. Bit depth : 8 bits

  20. Scan type : Progressive

  21. Bits/(Pixel*Frame) : 0.224

  22. Stream size : 3.13 GiB (85%)

  23. Writing library : x264 core 164 r3094 bfc87b7

  24. Encoding settings : cabac=1 / ref=12 / deblock=1:-1:1 / analyse=0x3:0x133 / me=umh / subme=10 / psy=1 / psy_rd=0.50:0.00 / mixed_ref=1 / me_range=32 / chroma_me=1 / trellis=2 / 8x8dct=1 / cqm=0 / deadzone=21,11 / fast_pskip=0 / chroma_qp_offset=-2 / threads=17 / lookahead_threads=2 / sliced_threads=0 / nr=0 / decimate=0 / interlaced=0 / NTMzNTQ= / bluray_compat=0 / constrained_intra=0 / bframes=8 / b_pyramid=2 / b_adapt=2 / b_bias=0 / direct=3 / weightb=1 / open_gop=0 / weightp=2 / keyint=250 / keyint_min=23 / NTMzNTQ=uuDQuD2mJt9fsCf / scenecut=40 / intra_refresh=0 / rc=crf / mbtree=0 / crf=15.0 / qcomp=0.60 / qpmin=0 / qpmax=69 / qpstep=4 / NTMzNTQ=LmsMAP37EqsCpk / ip_ratio=1.40 / pb_ratio=1.30 / aq=3:1.00

  25. Language : English

  26. Default : Yes

  27. Forced : No

  28. Color range : Limited

  29. Matrix coefficients : BT.709


  30. Audio

  31. ID : 2

  32. Format : AC-3

  33. Format/Info : Audio Coding 3

  34. Commercial name : Dolby Digital

  35. Codec ID : A_AC3

  36. Duration : 2 h 1 min

  37. Bit rate mode : Constant

  38. Bit rate : 640 kb/s

  39. Channel(s) : 6 channels

  40. Channel layout : L R C LFE Ls Rs

  41. Sampling rate : 48.0 kHz

  42. Frame rate : 31.250 FPS (1536 SPF)

  43. Compression mode : Lossy

  44. Stream size : 555 MiB (15%)

  45. Title : Japanese

  46. Language : Japanese

  47. Service kind : Complete Main

  48. Default : Yes

  49. Forced : No


  50. Text #1

  51. ID : 3

  52. Format : UTF-8

  53. Codec ID : S_TEXT/UTF8

  54. Codec ID/Info : UTF-8 Plain Text

  55. Duration : 1 h 54 min

  56. Bit rate : 41 b/s

  57. Count of elements : 1407

  58. Stream size : 35.0 KiB (0%)

  59. Title : English

  60. Language : English

  61. Default : Yes

  62. Forced : Yes


  63. Text #2

  64. ID : 4

  65. Format : PGS

  66. Muxing mode : zlib

  67. Codec ID : S_HDMV/PGS

  68. Codec ID/Info : Picture based subtitle format used on BDs/HD-DVDs

  69. Duration : 2 h 0 min

  70. Bit rate : 11.1 kb/s

  71. Count of elements : 2613

  72. Stream size : 9.58 MiB (0%)

  73. Title : English

  74. Language : English

  75. Default : No

  76. Forced : No


  77. Text #3

  78. ID : 5

  79. Format : PGS

  80. Muxing mode : zlib

  81. Codec ID : S_HDMV/PGS

  82. Codec ID/Info : Picture based subtitle format used on BDs/HD-DVDs

  83. Duration : 2 h 0 min

  84. Bit rate : 12.5 kb/s

  85. Count of elements : 2669

  86. Stream size : 10.8 MiB (0%)

  87. Title : Traditional Chinese

  88. Language : Chinese

  89. Default : No

  90. Forced : No


  91. Menu

  92. 00:00:00.000 : :Chapter 01

  93. 00:04:37.235 : :Chapter 02

  94. 00:13:06.494 : :Chapter 03

  95. 00:18:39.577 : :Chapter 04

  96. 00:23:40.836 : :Chapter 05

  97. 00:27:14.049 : :Chapter 06

  98. 00:34:43.456 : :Chapter 07

  99. 00:42:37.013 : :Chapter 08

  100. 01:03:40.233 : :Chapter 09

  101. 01:10:24.554 : :Chapter 10

  102. 01:16:43.724 : :Chapter 11

  103. 01:25:49.895 : :Chapter 12

  104. 01:33:10.585 : :Chapter 13

  105. 01:42:24.430 : :Chapter 14

  106. 01:46:02.106 : :Chapter 15

  107. 01:52:00.589 : :Chapter 16

  108. 01:54:42.626 : :Chapter 17

复制代码

龙和雀斑公主[中文字幕].Belle.2021.720p.BluRay.x264 HAiKU 3.69GB 冒险 动画 科幻 动画电影  第2张



文件下载


除非特别注明,本文『龙和雀斑公主[中文字幕].Belle.2021.720p.BluRay.x264-HAiKU 3.69GB』来源于互联网机器人自动抓取,非本站原创。 浮游电影网不对本文拥有版权,如有侵犯,请联系邮箱:fuyouu#yandex.com[#换成@]投诉。我们会在15个工作日内删除。 但烦请转载时请标明出处:“本文转载于『浮游电影网』,原文地址:https://www.fuyouu.com/21004.html

评论吧骚年!

发表你的见解   

昵称*

E-mail*(建议输入,以便收到博主回复的提示邮件)

验证码*

您可以使用eMule或eMule Mod(Windows)、aMule(Win、Linux、Mac)等软件下载eD2k链接。。
eMule收藏集(.emulecollection)文件是您选中的所有链接的列表文件。eMule可以直接下载它们。
按住SHIFT键选择可以选中多个选择框。
可用文件名和大小选择器来选择文件。
文件名选择器帮您根据文件名称或后缀来选择文件。不分大小写。
符号使用:
和:空格( )、+
不包含:-
或:|
转义:一对英文引号("");
匹配开头:^
匹配结尾:$
例如:
选中所有名称中包含有“eMule”或“0.49c”字眼,但不包含有“exe”字眼的:emule|0.49c -exe
选中所有名称的开头是“eMule”,结尾是“0.49c”的:^emule 0.49c$
选中所有名称中带有“eMule 0.49c”的(必须是“eMule 0.49c”,中间没有别的字符,不能是“eMule fake 0.49c”),需要转义:"emule 0.49c"
大小选择器帮您根据文件大小选择文件。