当前位置: 首页 >> 欧美电影 >> 机器战警[中文字幕].RoboCop.1987.ARROW.REMASTERED.DC.1080p.BluRay.REMUX.AVC.DTS-HD.MA.TrueHD.7.1.Atmos-FGT 33 >> 正文

机器战警[中文字幕].RoboCop.1987.ARROW.REMASTERED.DC.1080p.BluRay.REMUX.AVC.DTS-HD.MA.TrueHD.7.1.Atmos-FGT 33

2022年03月29日 12:15:46     电影发布:来源于网络     电影分类:欧美电影     评论(0)    

机器战警[中文字幕].RoboCop.1987.ARROW.REMASTERED.DC.1080p.BluRay.REMUX.AVC.DTS HD.MA.TrueHD.7.1.Atmos FGT 33 科幻 犯罪 惊悚 动作 剧情 欧美电影  第1张

◎译 名 机器战警 / 铁甲威龙(港) / 机器战警(台) / 机械战警 / 威龙争雄 / 死而复生

◎片 名 RoboCop

◎年 代 1987

◎产 地 美国

◎类 别 剧情 / 动作 / 科幻 / 惊悚 / 犯罪

◎语 言 英语

◎上映日期 1987-07-17

◎IMDb链接 https://www.imdb.com/title/tt0093870/

◎豆瓣评分 7.7/10 (40523人评价)

◎豆瓣链接 https://movie.douban.com/subject/1294791/

◎片 长 102 分钟

◎导 演 保罗·范霍文 Paul Verhoeven (id:1055953)

◎编 剧 爱德华·诺麦尔 Edward Neumeier (id:1293076)

迈克尔·迈纳 Michael Miner (id:1292161)

◎演 员 彼得·威勒 Peter Weller (id:1010564)

南茜·艾伦 Nancy Allen (id:1009358)

丹·奥赫里奇 Dan O'Herlihy (id:1130156)

罗尼·考克斯 Ronny Cox (id:1025265)

柯特伍德·史密斯 Kurtwood Smith (id:1010600)

弗雷迪·海斯 Freddie Hice (id:1286573)

菲尔顿·派瑞 Felton Perry (id:1050229)

李·德布鲁 Lee de Broux (id:1090135)

约翰·S.戴维斯 John S. Davies (id:1083751)

达里尔·考克斯 Darryl Cox (id:1068706)

威廉姆·肖克利 William Shockley (id:1143786)

黛安·罗宾 Diane Robin (id:1139306)

莉扎·吉邦斯 Leeza Gibbons (id:1055925)

阿兰·格拉夫 Allan Graf (id:1285262)

比尔·法玛尔 Bill Farmer (id:1283454)

Gilbert B. Combs Gilbert B. Combs (id:1281100)

雷·怀斯 Ray Wise (id:1025253)

米盖尔·弗尔 Miguel Ferrer (id:1007021)

保罗·麦克兰尼 Paul McCrane (id:1014040)

罗伯特·多奎 Robert DoQui (id:1079203)

保罗·范霍文 Paul Verhoeven (id:1055953)

Jerry Haynes Jerry Haynes (id:1093844)

菲尔·蒂贝特 Phil Tippett (id:1299349)

斯蒂芬·林 Stephen Lim (id:1290058)

爱德华·诺麦尔 Edward Neumeier (id:1293076)

巴索·普列多斯 Basil Poledouris (id:1025404)

约斯特·瓦卡诺 Jost Vacano (id:1032991)

弗兰克·J·乌里奥斯特 Frank J. Urioste (id:1299752)

威廉·桑德尔 William Sandell (id:1296616)

罗伯特·古尔德 Robert Gould (id:1285237)

Erica Edell Phillips Erica Edell Phillips (id:1294458)

Margaret Prentice Margaret Prentice (id:1278536)

罗伯·博汀 Rob Bottin (id:1276191)

斯蒂凡·杜普里斯 Stephan Dupuis (id:1282848)

马克·戈德布拉特 Mark Goldblatt (id:1285044)

兰迪·杜特拉 Randy Dutra (id:1282874)

Rick Fichter Rick Fichter (id:1283660)

罗科·焦弗雷 Rocco Gioffre (id:1284912)

Tom St. Amand Tom St. Amand (id:1298210)

克雷格·海斯 Craig Hayes (id:1286277)

彼得·库兰 Peter Kuran (id:1289126)

菲尔·蒂贝特 Phil Tippett (id:1299349)

杰米·韩门 Jamie Hyneman (id:1223858)

◎简 介

底特律是世界闻名的汽车城,这里的机械工业已经到了出神入化的地步。墨菲(彼得?威勒 Peter Weller 饰)是底特律的一个普通警察,既没有非凡身手、也没有高超技术。一次,他执行任务时被一伙暴徒暴打致死,从此他的人生轨迹改变了。

底特律的科学家没能救活他的身体,却能将他的头脑和机械完美地合二为一。墨菲成了一个有着人类头脑和机械身体的机械警察!身上配备了各种武器、能应付各种各样的暴力活动的墨菲成了底特律警察的王牌。然而墨菲发生意外后他的家人却神秘失踪了,墨菲打击罪恶之余一直在竭力寻找家人。

令人意外的是,墨菲的机械身体却是操控在一伙利益集团手中。他们一直都在利用墨菲干着各种罪恶勾当……

◎获奖情况 (共3项)

第60届奥斯卡金像奖 (1988)

最佳剪辑(提名)

└──弗兰克·J·乌里奥斯特 (id:1299752)

最佳音响(提名)

特别成就奖

  1. Video

  2. ID : 1

  3. Format : AVC

  4. Format/Info : Advanced Video Codec

  5. Format profile : [email protected]

  6. Format settings : CABAC / 3 Ref Frames

  7. Format settings, CABAC : Yes

  8. Format settings, Reference frames : 3 frames

  9. Codec ID : V_MPEG4/ISO/AVC

  10. Duration : 1 h 43 min

  11. Bit rate mode : Variable

  12. Bit rate : 29.2 Mb/s

  13. Maximum bit rate : 38.0 Mb/s

  14. Width : 1 920 pixels

  15. Height : 1 080 pixels

  16. Display aspect ratio : 16:9

  17. Frame rate mode : Constant

  18. Frame rate : 23.976 (24000/1001/53354) FPS

  19. Color space : YUV

  20. Chroma subsampling : 4:2:0

  21. Bit depth : 8 bits

  22. Scan type : Progressive

  23. Bits/(Pixel*Frame) : 0.588

  24. Stream size : 21.1 GiB (63%)

  25. Language : English

  26. Default : No

  27. Forced : No

  28. Color range : Limited

  29. Color primaries : BT.709

  30. Transfer characteristics : BT.709

  31. Matrix coefficients : BT.709


  32. Audio #1

  33. ID : 2

  34. ID in the original source medium : 4355 (0x1103)

  35. Format : MLP FBA 16-ch

  36. Format/Info : Meridian Lossless Packing FBA with 16-channel presentation

  37. Commercial name : Dolby TrueHD with Dolby Atmos

  38. Codec ID : A_TRUEHD

  39. Duration : 1 h 43 min

  40. Bit rate mode : Variable

  41. Bit rate : 4 559 kb/s

  42. Maximum bit rate : 7 476 kb/s

  43. Channel(s) : 8 channels

  44. Channel layout : L R C LFE Ls Rs Lb Rb

  45. Sampling rate : 48.0 kHz

  46. Frame rate : 1 200.000 FPS (40 SPF)

  47. Bit depth : 24 bits

  48. Compression mode : Lossless

  49. Stream size : 3.29 GiB (10%)

  50. Title : TrueHD 7.1 Atmos

  51. Language : English

  52. Default : Yes

  53. Forced : No

  54. Original source medium : Blu-ray

  55. Number of dynamic objects : 15

  56. Bed channel count : 1 channel

  57. Bed channel configuration : LFE


  58. Audio #2

  59. ID : 3

  60. Format : DTS XLL

  61. Format/Info : Digital Theater Systems

  62. Commercial name : DTS-HD Master Audio

  63. Codec ID : A_DTS

  64. Duration : 1 h 43 min

  65. Bit rate mode : Variable

  66. Bit rate : 4 729 kb/s

  67. Channel(s) : 8 channels

  68. Channel layout : C L R LFE Lb Rb Lss Rss

  69. Sampling rate : 48.0 kHz

  70. Frame rate : 93.750 FPS (512 SPF)

  71. Bit depth : 24 bits

  72. Compression mode : Lossless

  73. Stream size : 3.41 GiB (10%)

  74. Title : DTS-HD MA 7.1

  75. Language : English

  76. Default : No

  77. Forced : No


  78. Audio #3

  79. ID : 4

  80. ID in the original source medium : 4355 (0x1103)

  81. Format : AC-3

  82. Format/Info : Audio Coding 3

  83. Commercial name : Dolby Digital

  84. Format settings : Dolby Surround EX

  85. Codec ID : A_AC3

  86. Duration : 1 h 43 min

  87. Bit rate mode : Constant

  88. Bit rate : 640 kb/s

  89. Channel(s) : 6 channels

  90. Channel layout : L R C LFE Ls Rs

  91. Sampling rate : 48.0 kHz

  92. Frame rate : 31.250 FPS (1536 SPF)

  93. Compression mode : Lossy

  94. Stream size : 473 MiB (1%)

  95. Title : DD 5.1

  96. Language : English

  97. Service kind : Complete Main

  98. Default : No

  99. Forced : No

  100. Original source medium : Blu-ray


  101. Audio #4

  102. ID : 5

  103. ID in the original source medium : 4352 (0x1100)

  104. Format : DTS XLL

  105. Format/Info : Digital Theater Systems

  106. Commercial name : DTS-HD Master Audio

  107. Codec ID : A_DTS

  108. Duration : 1 h 43 min

  109. Bit rate mode : Variable

  110. Bit rate : 1 643 kb/s

  111. Channel(s) : 2 channels

  112. Sampling rate : 48.0 kHz

  113. Frame rate : 93.750 FPS (512 SPF)

  114. Bit depth : 24 bits

  115. Compression mode : Lossless

  116. Stream size : 1.18 GiB (4%)

  117. Title : DTS-HD MA 2.0

  118. Language : English

  119. Default : No

  120. Forced : No

  121. Original source medium : Blu-ray


  122. Audio #5

  123. ID : 6

  124. ID in the original source medium : 4353 (0x1101)

  125. Format : DTS XLL

  126. Format/Info : Digital Theater Systems

  127. Commercial name : DTS-HD Master Audio

  128. Codec ID : A_DTS

  129. Duration : 1 h 43 min

  130. Bit rate mode : Variable

  131. Bit rate : 2 948 kb/s

  132. Channel(s) : 4 channels

  133. Channel layout : C L R Cb

  134. Sampling rate : 48.0 kHz

  135. Frame rate : 93.750 FPS (512 SPF)

  136. Bit depth : 24 bits

  137. Compression mode : Lossless

  138. Stream size : 2.13 GiB (6%)

  139. Title : DTS-HD MA 4.0

  140. Language : English

  141. Default : No

  142. Forced : No

  143. Original source medium : Blu-ray


  144. Audio #6

  145. ID : 7

  146. ID in the original source medium : 4354 (0x1102)

  147. Format : DTS XLL

  148. Format/Info : Digital Theater Systems

  149. Commercial name : DTS-HD Master Audio

  150. Codec ID : A_DTS

  151. Duration : 1 h 43 min

  152. Bit rate mode : Variable

  153. Bit rate : 1 854 kb/s

  154. Channel(s) : 6 channels

  155. Channel layout : C L R Ls Rs LFE

  156. Sampling rate : 48.0 kHz

  157. Frame rate : 93.750 FPS (512 SPF)

  158. Bit depth : 24 bits

  159. Compression mode : Lossless

  160. Stream size : 1.34 GiB (4%)

  161. Title : Surround 5.1

  162. Language : English

  163. Default : No

  164. Forced : No

  165. Original source medium : Blu-ray


  166. Audio #7

  167. ID : 8

  168. ID in the original source medium : 4356 (0x1104)

  169. Format : AC-3

  170. Format/Info : Audio Coding 3

  171. Commercial name : Dolby Digital

  172. Codec ID : A_AC3

  173. Duration : 1 h 43 min

  174. Bit rate mode : Constant

  175. Bit rate : 192 kb/s

  176. Channel(s) : 2 channels

  177. Channel layout : L R

  178. Sampling rate : 48.0 kHz

  179. Frame rate : 31.250 FPS (1536 SPF)

  180. Compression mode : Lossy

  181. Stream size : 142 MiB (0%)

  182. Title : DD 2.0

  183. Language : English

  184. Service kind : Complete Main

  185. Default : No

  186. Forced : No

  187. Original source medium : Blu-ray


  188. Audio #8

  189. ID : 9

  190. ID in the original source medium : 4357 (0x1105)

  191. Format : AC-3

  192. Format/Info : Audio Coding 3

  193. Commercial name : Dolby Digital

  194. Codec ID : A_AC3

  195. Duration : 1 h 43 min

  196. Bit rate mode : Constant

  197. Bit rate : 192 kb/s

  198. Channel(s) : 2 channels

  199. Channel layout : L R

  200. Sampling rate : 48.0 kHz

  201. Frame rate : 31.250 FPS (1536 SPF)

  202. Compression mode : Lossy

  203. Stream size : 142 MiB (0%)

  204. Title : DD 2.0

  205. Language : English

  206. Service kind : Complete Main

  207. Default : No

  208. Forced : No

  209. Original source medium : Blu-ray


  210. Audio #9

  211. ID : 10

  212. ID in the original source medium : 4358 (0x1106)

  213. Format : AC-3

  214. Format/Info : Audio Coding 3

  215. Commercial name : Dolby Digital

  216. Codec ID : A_AC3

  217. Duration : 1 h 43 min

  218. Bit rate mode : Constant

  219. Bit rate : 192 kb/s

  220. Channel(s) : 2 channels

  221. Channel layout : L R

  222. Sampling rate : 48.0 kHz

  223. Frame rate : 31.250 FPS (1536 SPF)

  224. Compression mode : Lossy

  225. Stream size : 142 MiB (0%)

  226. Title : DD 2.0

  227. Language : English

  228. Service kind : Complete Main

  229. Default : No

  230. Forced : No

  231. Original source medium : Blu-ray


  232. Text #1

  233. ID : 11

  234. Format : UTF-8

  235. Codec ID : S_TEXT/UTF8

  236. Codec ID/Info : UTF-8 Plain Text

  237. Duration : 1 h 36 min

  238. Bit rate : 51 b/s

  239. Count of elements : 1128

  240. Stream size : 36.2 KiB (0%)

  241. Language : English

  242. Default : Yes

  243. Forced : No


  244. Text #2

  245. ID : 12

  246. Format : UTF-8

  247. Codec ID : S_TEXT/UTF8

  248. Codec ID/Info : UTF-8 Plain Text

  249. Duration : 1 h 36 min

  250. Bit rate : 55 b/s

  251. Count of elements : 1321

  252. Stream size : 38.8 KiB (0%)

  253. Title : SDH

  254. Language : English

  255. Default : No

  256. Forced : No


  257. Text #3

  258. ID : 13

  259. Format : PGS

  260. Muxing mode : zlib

  261. Codec ID : S_HDMV/PGS

  262. Codec ID/Info : Picture based subtitle format used on BDs/HD-DVDs

  263. Duration : 1 h 36 min

  264. Bit rate : 38.2 kb/s

  265. Count of elements : 2660

  266. Stream size : 26.2 MiB (0%)

  267. Title : SDH

  268. Language : English

  269. Default : No

  270. Forced : No


  271. Text #4

  272. ID : 14

  273. Format : PGS

  274. Muxing mode : zlib

  275. Codec ID : S_HDMV/PGS

  276. Codec ID/Info : Picture based subtitle format used on BDs/HD-DVDs

  277. Duration : 1 h 42 min

  278. Bit rate : 97.2 kb/s

  279. Count of elements : 4338

  280. Stream size : 71.1 MiB (0%)

  281. Title : Commentary with Director Paul Verhoeven, Writer Ed Neumeier and Producer Jon Davison

  282. Language : English

  283. Default : No

  284. Forced : No


  285. Text #5

  286. ID : 15

  287. Format : PGS

  288. Muxing mode : zlib

  289. Codec ID : S_HDMV/PGS

  290. Codec ID/Info : Picture based subtitle format used on BDs/HD-DVDs

  291. Duration : 1 h 42 min

  292. Bit rate : 29.0 kb/s

  293. Count of elements : 2350

  294. Stream size : 21.2 MiB (0%)

  295. Language : French

  296. Default : No

  297. Forced : No


  298. Text #6

  299. ID : 16

  300. Format : PGS

  301. Muxing mode : zlib

  302. Codec ID : S_HDMV/PGS

  303. Codec ID/Info : Picture based subtitle format used on BDs/HD-DVDs

  304. Duration : 1 h 42 min

  305. Bit rate : 73.1 kb/s

  306. Count of elements : 4168

  307. Stream size : 53.7 MiB (0%)

  308. Title : Commentary with Director Paul Verhoeven, Writer Ed Neumeier and Producer Jon Davison

  309. Language : French

  310. Default : No

  311. Forced : No


  312. Text #7

  313. ID : 17

  314. Format : PGS

  315. Muxing mode : zlib

  316. Codec ID : S_HDMV/PGS

  317. Codec ID/Info : Picture based subtitle format used on BDs/HD-DVDs

  318. Duration : 1 h 36 min

  319. Bit rate : 31.2 kb/s

  320. Count of elements : 2352

  321. Stream size : 21.5 MiB (0%)

  322. Language : Spanish

  323. Default : No

  324. Forced : No


  325. Text #8

  326. ID : 18

  327. Format : PGS

  328. Muxing mode : zlib

  329. Codec ID : S_HDMV/PGS

  330. Codec ID/Info : Picture based subtitle format used on BDs/HD-DVDs

  331. Duration : 1 h 36 min

  332. Bit rate : 32.4 kb/s

  333. Count of elements : 2358

  334. Stream size : 22.2 MiB (0%)

  335. Language : Spanish

  336. Default : No

  337. Forced : No


  338. Text #9

  339. ID : 19

  340. Format : PGS

  341. Muxing mode : zlib

  342. Codec ID : S_HDMV/PGS

  343. Codec ID/Info : Picture based subtitle format used on BDs/HD-DVDs

  344. Duration : 1 h 36 min

  345. Bit rate : 32.3 kb/s

  346. Count of elements : 2360

  347. Stream size : 22.3 MiB (0%)

  348. Language : Portuguese

  349. Default : No

  350. Forced : No


  351. Text #10

  352. ID : 20

  353. Format : PGS

  354. Muxing mode : zlib

  355. Codec ID : S_HDMV/PGS

  356. Codec ID/Info : Picture based subtitle format used on BDs/HD-DVDs

  357. Duration : 1 h 42 min

  358. Bit rate : 31.3 kb/s

  359. Count of elements : 2366

  360. Stream size : 22.9 MiB (0%)

  361. Language : Portuguese

  362. Default : No

  363. Forced : No


  364. Text #11

  365. ID : 21

  366. Format : PGS

  367. Muxing mode : zlib

  368. Codec ID : S_HDMV/PGS

  369. Codec ID/Info : Picture based subtitle format used on BDs/HD-DVDs

  370. Duration : 1 h 36 min

  371. Bit rate : 31.5 kb/s

  372. Count of elements : 2352

  373. Stream size : 21.7 MiB (0%)

  374. Language : Italian

  375. Default : No

  376. Forced : No


  377. Text #12

  378. ID : 22

  379. Format : PGS

  380. Muxing mode : zlib

  381. Codec ID : S_HDMV/PGS

  382. Codec ID/Info : Picture based subtitle format used on BDs/HD-DVDs

  383. Duration : 1 h 36 min

  384. Bit rate : 34.0 kb/s

  385. Count of elements : 2382

  386. Stream size : 23.4 MiB (0%)

  387. Language : German

  388. Default : No

  389. Forced : No


  390. Text #13

  391. ID : 23

  392. Format : PGS

  393. Muxing mode : zlib

  394. Codec ID : S_HDMV/PGS

  395. Codec ID/Info : Picture based subtitle format used on BDs/HD-DVDs

  396. Duration : 1 h 42 min

  397. Bit rate : 82.4 kb/s

  398. Count of elements : 4170

  399. Stream size : 60.5 MiB (0%)

  400. Title : Commentary with Director Paul Verhoeven, Writer Ed Neumeier and Producer Jon Davison

  401. Language : German

  402. Default : No

  403. Forced : No


  404. Text #14

  405. ID : 24

  406. Format : PGS

  407. Muxing mode : zlib

  408. Codec ID : S_HDMV/PGS

  409. Codec ID/Info : Picture based subtitle format used on BDs/HD-DVDs

  410. Duration : 1 h 36 min

  411. Bit rate : 28.5 kb/s

  412. Count of elements : 2350

  413. Stream size : 19.5 MiB (0%)

  414. Language : Dutch

  415. Default : No

  416. Forced : No


  417. Text #15

  418. ID : 25

  419. Format : PGS

  420. Muxing mode : zlib

  421. Codec ID : S_HDMV/PGS

  422. Codec ID/Info : Picture based subtitle format used on BDs/HD-DVDs

  423. Duration : 1 h 36 min

  424. Bit rate : 30.6 kb/s

  425. Count of elements : 2354

  426. Stream size : 21.0 MiB (0%)

  427. Language : Swedish

  428. Default : No

  429. Forced : No


  430. Text #16

  431. ID : 26

  432. Format : PGS

  433. Muxing mode : zlib

  434. Codec ID : S_HDMV/PGS

  435. Codec ID/Info : Picture based subtitle format used on BDs/HD-DVDs

  436. Duration : 1 h 36 min

  437. Bit rate : 30.3 kb/s

  438. Count of elements : 2282

  439. Stream size : 20.8 MiB (0%)

  440. Language : Norwegian

  441. Default : No

  442. Forced : No


  443. Text #17

  444. ID : 27

  445. Format : PGS

  446. Muxing mode : zlib

  447. Codec ID : S_HDMV/PGS

  448. Codec ID/Info : Picture based subtitle format used on BDs/HD-DVDs

  449. Duration : 1 h 36 min

  450. Bit rate : 31.0 kb/s

  451. Count of elements : 2352

  452. Stream size : 21.3 MiB (0%)

  453. Language : Danish

  454. Default : No

  455. Forced : No


  456. Text #18

  457. ID : 28

  458. Format : PGS

  459. Muxing mode : zlib

  460. Codec ID : S_HDMV/PGS

  461. Codec ID/Info : Picture based subtitle format used on BDs/HD-DVDs

  462. Duration : 1 h 36 min

  463. Bit rate : 32.1 kb/s

  464. Count of elements : 2354

  465. Stream size : 22.1 MiB (0%)

  466. Language : Finnish

  467. Default : No

  468. Forced : No


  469. Text #19

  470. ID : 29

  471. Format : PGS

  472. Muxing mode : zlib

  473. Codec ID : S_HDMV/PGS

  474. Codec ID/Info : Picture based subtitle format used on BDs/HD-DVDs

  475. Duration : 1 h 42 min

  476. Bit rate : 32.5 kb/s

  477. Count of elements : 2384

  478. Stream size : 23.7 MiB (0%)

  479. Language : Russian

  480. Default : No

  481. Forced : No


  482. Text #20

  483. ID : 30

  484. Format : PGS

  485. Muxing mode : zlib

  486. Codec ID : S_HDMV/PGS

  487. Codec ID/Info : Picture based subtitle format used on BDs/HD-DVDs

  488. Duration : 1 h 42 min

  489. Bit rate : 29.3 kb/s

  490. Count of elements : 2358

  491. Stream size : 21.4 MiB (0%)

  492. Language : Czech

  493. Default : No

  494. Forced : No


  495. Text #21

  496. ID : 31

  497. Format : PGS

  498. Muxing mode : zlib

  499. Codec ID : S_HDMV/PGS

  500. Codec ID/Info : Picture based subtitle format used on BDs/HD-DVDs

  501. Duration : 1 h 42 min

  502. Bit rate : 31.9 kb/s

  503. Count of elements : 2360

  504. Stream size : 23.4 MiB (0%)

  505. Language : Polish

  506. Default : No

  507. Forced : No


  508. Text #22

  509. ID : 32

  510. Format : PGS

  511. Muxing mode : zlib

  512. Codec ID : S_HDMV/PGS

  513. Codec ID/Info : Picture based subtitle format used on BDs/HD-DVDs

  514. Duration : 1 h 42 min

  515. Bit rate : 31.5 kb/s

  516. Count of elements : 2358

  517. Stream size : 23.0 MiB (0%)

  518. Language : Hungarian

  519. Default : No

  520. Forced : No


  521. Text #23

  522. ID : 33

  523. Format : PGS

  524. Muxing mode : zlib

  525. Codec ID : S_HDMV/PGS

  526. Codec ID/Info : Picture based subtitle format used on BDs/HD-DVDs

  527. Duration : 1 h 42 min

  528. Bit rate : 27.4 kb/s

  529. Count of elements : 2360

  530. Stream size : 20.0 MiB (0%)

  531. Language : Slovenian

  532. Default : No

  533. Forced : No


  534. Text #24

  535. ID : 34

  536. Format : PGS

  537. Muxing mode : zlib

  538. Codec ID : S_HDMV/PGS

  539. Codec ID/Info : Picture based subtitle format used on BDs/HD-DVDs

  540. Duration : 1 h 42 min

  541. Bit rate : 28.6 kb/s

  542. Count of elements : 2364

  543. Stream size : 20.9 MiB (0%)

  544. Language : Croatian

  545. Default : No

  546. Forced : No


  547. Text #25

  548. ID : 35

  549. Format : PGS

  550. Muxing mode : zlib

  551. Codec ID : S_HDMV/PGS

  552. Codec ID/Info : Picture based subtitle format used on BDs/HD-DVDs

  553. Duration : 1 h 42 min

  554. Bit rate : 14.2 kb/s

  555. Count of elements : 1609

  556. Stream size : 10.4 MiB (0%)

  557. Language : Japanese

  558. Default : No

  559. Forced : No


  560. Text #26

  561. ID : 36

  562. Format : PGS

  563. Muxing mode : zlib

  564. Codec ID : S_HDMV/PGS

  565. Codec ID/Info : Picture based subtitle format used on BDs/HD-DVDs

  566. Duration : 1 h 42 min

  567. Bit rate : 37.7 kb/s

  568. Count of elements : 2850

  569. Stream size : 27.5 MiB (0%)

  570. Title : Commentary with Director Paul Verhoeven, Writer Ed Neumeier and Producer Jon Davison

  571. Language : Japanese

  572. Default : No

  573. Forced : No


  574. Text #27

  575. ID : 37

  576. Format : PGS

  577. Muxing mode : zlib

  578. Codec ID : S_HDMV/PGS

  579. Codec ID/Info : Picture based subtitle format used on BDs/HD-DVDs

  580. Duration : 1 h 36 min

  581. Bit rate : 24.2 kb/s

  582. Count of elements : 2380

  583. Stream size : 16.7 MiB (0%)

  584. Language : Chinese

  585. Default : No

  586. Forced : No


  587. Text #28

  588. ID : 38

  589. Format : PGS

  590. Muxing mode : zlib

  591. Codec ID : S_HDMV/PGS

  592. Codec ID/Info : Picture based subtitle format used on BDs/HD-DVDs

  593. Duration : 1 h 42 min

  594. Bit rate : 22.3 kb/s

  595. Count of elements : 2386

  596. Stream size : 16.3 MiB (0%)

  597. Language : Chinese

  598. Default : No

  599. Forced : No


  600. Text #29

  601. ID : 39

  602. Format : PGS

  603. Muxing mode : zlib

  604. Codec ID : S_HDMV/PGS

  605. Codec ID/Info : Picture based subtitle format used on BDs/HD-DVDs

  606. Duration : 1 h 36 min

  607. Bit rate : 23.1 kb/s

  608. Count of elements : 2386

  609. Stream size : 15.9 MiB (0%)

  610. Language : Chinese

  611. Default : No

  612. Forced : No


  613. Text #30

  614. ID : 40

  615. Format : PGS

  616. Muxing mode : zlib

  617. Codec ID : S_HDMV/PGS

  618. Codec ID/Info : Picture based subtitle format used on BDs/HD-DVDs

  619. Duration : 1 h 42 min

  620. Bit rate : 24.6 kb/s

  621. Count of elements : 2382

  622. Stream size : 18.0 MiB (0%)

  623. Language : Thai

  624. Default : No

  625. Forced : No


  626. Menu

  627. 00:00:00.000 : en:Chapter 01

  628. 00:09:50.089 : en:Chapter 02

  629. 00:17:08.944 : en:Chapter 03

  630. 00:24:19.458 : en:Chapter 04

  631. 00:33:55.783 : en:Chapter 05

  632. 00:45:15.170 : en:Chapter 06

  633. 00:55:05.510 : en:Chapter 07

  634. 01:01:41.114 : en:Chapter 08

  635. 01:08:44.662 : en:Chapter 09

  636. 01:17:26.600 : en:Chapter 10

  637. 01:25:50.103 : en:Chapter 11

  638. 01:34:04.472 : en:Chapter 12

复制代码

机器战警[中文字幕].RoboCop.1987.ARROW.REMASTERED.DC.1080p.BluRay.REMUX.AVC.DTS HD.MA.TrueHD.7.1.Atmos FGT 33 科幻 犯罪 惊悚 动作 剧情 欧美电影  第2张 机器战警[中文字幕].RoboCop.1987.ARROW.REMASTERED.DC.1080p.BluRay.REMUX.AVC.DTS HD.MA.TrueHD.7.1.Atmos FGT 33 科幻 犯罪 惊悚 动作 剧情 欧美电影  第3张 机器战警[中文字幕].RoboCop.1987.ARROW.REMASTERED.DC.1080p.BluRay.REMUX.AVC.DTS HD.MA.TrueHD.7.1.Atmos FGT 33 科幻 犯罪 惊悚 动作 剧情 欧美电影  第4张



文件下载


除非特别注明,本文『机器战警[中文字幕].RoboCop.1987.ARROW.REMASTERED.DC.1080p.BluRay.REMUX.AVC.DTS-HD.MA.TrueHD.7.1.Atmos-FGT 33』来源于互联网机器人自动抓取,非本站原创。 浮游电影网不对本文拥有版权,如有侵犯,请联系邮箱:fuyouu#yandex.com[#换成@]投诉。我们会在15个工作日内删除。 但烦请转载时请标明出处:“本文转载于『浮游电影网』,原文地址:https://www.fuyouu.com/20966.html

评论吧骚年!

发表你的见解   

昵称*

E-mail*(建议输入,以便收到博主回复的提示邮件)

验证码*

您可以使用eMule或eMule Mod(Windows)、aMule(Win、Linux、Mac)等软件下载eD2k链接。。
eMule收藏集(.emulecollection)文件是您选中的所有链接的列表文件。eMule可以直接下载它们。
按住SHIFT键选择可以选中多个选择框。
可用文件名和大小选择器来选择文件。
文件名选择器帮您根据文件名称或后缀来选择文件。不分大小写。
符号使用:
和:空格( )、+
不包含:-
或:|
转义:一对英文引号("");
匹配开头:^
匹配结尾:$
例如:
选中所有名称中包含有“eMule”或“0.49c”字眼,但不包含有“exe”字眼的:emule|0.49c -exe
选中所有名称的开头是“eMule”,结尾是“0.49c”的:^emule 0.49c$
选中所有名称中带有“eMule 0.49c”的(必须是“eMule 0.49c”,中间没有别的字符,不能是“eMule fake 0.49c”),需要转义:"emule 0.49c"
大小选择器帮您根据文件大小选择文件。