当前位置: 首页 >> 欧美电影 >> 失控玩家[双语字幕].Free.Guy.2021.1080p.BluRay.DTS.x265-10bit 8.58GB >> 正文

失控玩家[双语字幕].Free.Guy.2021.1080p.BluRay.DTS.x265-10bit 8.58GB

2021年09月26日 12:42:09     电影发布:来源于网络     电影分类:欧美电影     评论(0)    

失控玩家[双语字幕].Free.Guy.2021.1080p.BluRay.DTS.x265 10bit 8.58GB 科幻片 喜剧片 动作片 欧美电影  第1张

◎译 名 失控玩家 / 分身人 / 爆机自由仁(港) / 脱稿玩家(台) / 自由之人 / 自由人

◎片 名 Free Guy

◎年 代 2021

◎产 地 美国 / 加拿大

◎类 别 喜剧 / 动作 / 科幻

◎语 言 英语

◎上映日期 2021-08-27(中国大陆) / 2021-08-10(洛迦诺电影节) / 2021-08-13(美国)

◎IMDb链接 https://www.imdb.com/title/tt6264654/

◎豆瓣评分 7.7/10 (349526人评价)

◎豆瓣链接 https://movie.douban.com/subject/30337388/

◎片 长 115分钟

◎导 演 肖恩·利维 Shawn Levy (id:1289935)

◎编 剧 马特·利伯曼 Matt Lieberman (id:1405591)

扎克·佩恩 Zak Penn (id:1294247)

◎演 员 瑞安·雷诺兹 Ryan Reynolds (id:1053623)

朱迪·科默 Jodie Comer (id:1338497)

乔·基瑞 Joe Keery (id:1360284)

里尔·莱尔·哈瓦瑞 Lil Rel Howery (id:1369571)

塔伊加·维迪提 Taika Waititi (id:1076354)

乌特卡什·安邦德卡尔 Utkarsh Ambudkar (id:1237549)

查宁·塔图姆 Channing Tatum (id:1031224)

休·杰克曼 Hugh Jackman (id:1010508)

道恩·强森 Dwayne Johnson (id:1044707)

克里斯·埃文斯 Chris Evans (id:1017885)

约翰·卡拉辛斯基 John Krasinski (id:1027146)

蒂娜·菲 Tina Fey (id:1044730)

卡米尔·科斯塔克 Camille Kostek (id:1455818)

布丽特妮·欧德福特 Britne Oldford (id:1315781)

肯尼斯·以色列 Kenneth Israel (id:1405785)

亚历克斯·崔贝克 Alex Trebek (id:1009563)

劳拉·斯宾塞 Lara Spencer (id:1224338)

马修·卡德罗普 Matthew Cardarople (id:1204213)

迈克尔·陶 Michael Tow (id:1413070)

野村祐人 Eugene Nomura (id:1045742)

Raj Jawa Raj Jawa (id:1024623)

何塞·冈斯·阿尔维斯 Jose Guns Alves (id:1446090)

欧文·伯克 Owen Burke (id:1387221)

加布里埃尔·洛莱斯 Gabrielle Lorthe (id:1413068)

雷吉纳·托芬 Regina Taufen (id:1207022)

珍妮尔·费格利 Janelle Feigley (id:1446088)

泰特·弗莱彻 Tait Fletcher (id:1389967)

香农·哈特曼 Shannon Hartman (id:1379598)

金伯利·豪威 Kimberly Howe (id:1359658)

Aaron W Reed Aaron W Reed (id:1460787)

阿纳斯塔西亚·齐卡那瓦 Anastasia Tsikhanava (id:1412302)

大卫·莫威克 David Morwick (id:1304942)

阿德里安·M·蒙波因特 Adrian M. Mompoint (id:1413072)

多梅尼克·阿尔迪诺 Domenic Arduino (id:1411091)

格里格·伯兰蒂 Greg Berlanti (id:1018094)

丹·列文 Dan Levine (id:1369598)

肖恩·利维 Shawn Levy (id:1289935)

乔什·麦克拉伦 Josh McLaglen (id:1032698)

瑞安·雷诺兹 Ryan Reynolds (id:1053623)

克里斯托弗·贝克 Christophe Beck (id:1278180)

乔治·瑞奇蒙 George Richmond (id:1434359)

罗纳·克雷斯 Ronna Kress (id:1055276)

伊桑·托布曼 Ethan Tobman (id:1150097)

比特·弗鲁蒂格 Beat Frutiger (id:1284270)

莱斯利·E·罗林斯 Leslie E. Rollins (id:1295961)

玛琳·斯图尔特 Marlene Stewart (id:1051194)

◎标 签 科幻 / 游戏 / 喜剧 / 搞笑 / 美国 / 奇幻 / 2021 / 冒险

◎简 介

银行出纳员盖(瑞安·雷诺兹 饰)发现自己其实是开放世界电子游戏中的背景角色,于是决定成为英雄,并改写自己的故事。现在,在一个没有限制的世界里,他决心以自己的方式拯救他的世界,以免为时过晚。

  1. ##### MediaInfo ######

  2. General

  3. Unique ID : 55823722059352017230672063773978545263 (0x29FF41FEAA2CC3E0D5A5830296DE4C6F)

  4. Complete name : [email protected]

  5. Format : Matroska

  6. Format version : Version 4

  7. File size : 8.58 GiB

  8. Duration : 1 h 54 min

  9. Overall bit rate : 10.7 Mb/s

  10. Movie name : Free Guy 2021 1080p BluRay DTS [email protected]

  11. Encoded date : UTC 2021-09-25 14:20:48

  12. Writing application : mkvmerge v38.0.0 ('The Silent Type') 64-bit

  13. Writing library : libebml v1.3.9 + libmatroska v1.5.2


  14. Video

  15. ID : 1

  16. Format : HEVC

  17. Format/Info : High Efficiency Video Coding

  18. Format profile : Main [email protected]@High

  19. Codec ID : V_MPEGH/ISO/HEVC

  20. Duration : 1 h 54 min

  21. Bit rate : 9 049 kb/s

  22. Width : 1 920 pixels

  23. Height : 804 pixels

  24. Display aspect ratio : 2.40:1

  25. Frame rate mode : Constant

  26. Frame rate : 23.976 (24000/1001/53354) FPS

  27. Color space : YUV

  28. Chroma subsampling : 4:2:0

  29. Bit depth : 10 bits

  30. Bits/(Pixel*Frame) : 0.245

  31. Stream size : 7.27 GiB (85%)

  32. Title : @HDSky

  33. Writing library : x265 - H.265/HEVC codec

  34. Default : Yes

  35. Forced : No


  36. Audio

  37. ID : 2

  38. Format : DTS ES

  39. Format/Info : Digital Theater Systems

  40. Commercial name : DTS-ES Matrix

  41. Codec ID : A_DTS

  42. Duration : 1 h 54 min

  43. Bit rate mode : Constant

  44. Bit rate : 1 509 kb/s

  45. Channel(s) : 6 channels

  46. Channel(s)_Original : 7 channels

  47. ChannelLayout_Original : C L R Ls Rs Cs LFE

  48. Sampling rate : 48.0 kHz

  49. Frame rate : 93.750 FPS (512 SPF)

  50. Bit depth : 24 bits

  51. Compression mode : Lossy

  52. Stream size : 1.21 GiB (14%)

  53. Title : English

  54. Language : English

  55. Default : Yes

  56. Forced : No


  57. Text #1

  58. ID : 3

  59. Format : PGS

  60. Muxing mode : zlib

  61. Codec ID : S_HDMV/PGS

  62. Codec ID/Info : Picture based subtitle format used on BDs/HD-DVDs

  63. Duration : 13 s 597 ms

  64. Bit rate : 64.5 kb/s

  65. Count of elements : 12

  66. Stream size : 107 KiB (0%)

  67. Title : ENG

  68. Language : English

  69. Default : Yes

  70. Forced : No


  71. Text #2

  72. ID : 4

  73. Format : PGS

  74. Muxing mode : zlib

  75. Codec ID : S_HDMV/PGS

  76. Codec ID/Info : Picture based subtitle format used on BDs/HD-DVDs

  77. Duration : 1 h 45 min

  78. Bit rate : 54.2 kb/s

  79. Count of elements : 4216

  80. Stream size : 40.9 MiB (0%)

  81. Title : CHS

  82. Language : Chinese

  83. Default : No

  84. Forced : No


  85. Text #3

  86. ID : 5

  87. Format : PGS

  88. Muxing mode : zlib

  89. Codec ID : S_HDMV/PGS

  90. Codec ID/Info : Picture based subtitle format used on BDs/HD-DVDs

  91. Duration : 1 h 45 min

  92. Bit rate : 56.1 kb/s

  93. Count of elements : 4215

  94. Stream size : 42.3 MiB (0%)

  95. Title : CHT

  96. Language : Chinese

  97. Default : No

  98. Forced : No


  99. Text #4

  100. ID : 6

  101. Format : PGS

  102. Muxing mode : zlib

  103. Codec ID : S_HDMV/PGS

  104. Codec ID/Info : Picture based subtitle format used on BDs/HD-DVDs

  105. Duration : 1 h 45 min

  106. Bit rate : 82.5 kb/s

  107. Count of elements : 4216

  108. Stream size : 62.2 MiB (1%)

  109. Title : CHS&ENG

  110. Language : Chinese

  111. Default : No

  112. Forced : No


  113. Text #5

  114. ID : 7

  115. Format : PGS

  116. Muxing mode : zlib

  117. Codec ID : S_HDMV/PGS

  118. Codec ID/Info : Picture based subtitle format used on BDs/HD-DVDs

  119. Duration : 1 h 45 min

  120. Bit rate : 84.5 kb/s

  121. Count of elements : 4215

  122. Stream size : 63.7 MiB (1%)

  123. Title : CHT&ENG

  124. Language : Chinese

  125. Default : No

  126. Forced : No


  127. Menu

  128. 00:00:00.000 : en:Chapter 01

  129. 00:05:09.100 : en:Chapter 02

  130. 00:08:43.815 : en:Chapter 03

  131. 00:14:29.702 : en:Chapter 04

  132. 00:21:25.701 : en:Chapter 05

  133. 00:24:06.028 : en:Chapter 06

  134. 00:28:25.245 : en:Chapter 07

  135. 00:34:21.810 : en:Chapter 08

  136. 00:39:40.837 : en:Chapter 09

  137. 00:44:10.731 : en:Chapter 10

  138. 00:48:47.967 : en:Chapter 11

  139. 00:52:47.748 : en:Chapter 12

  140. 00:56:18.375 : en:Chapter 13

  141. 01:00:17.739 : en:Chapter 14

  142. 01:04:41.920 : en:Chapter 15

  143. 01:09:13.816 : en:Chapter 16

  144. 01:15:13.300 : en:Chapter 17

  145. 01:19:14.083 : en:Chapter 18

  146. 01:23:59.326 : en:Chapter 19

  147. 01:28:06.406 : en:Chapter 20

  148. 01:33:07.415 : en:Chapter 21

  149. 01:39:19.954 : en:Chapter 22

  150. 01:44:22.506 : en:Chapter 23

  151. 01:46:13.993 : en:Chapter 24


文件下载


除非特别注明,本文『失控玩家[双语字幕].Free.Guy.2021.1080p.BluRay.DTS.x265-10bit 8.58GB』来源于互联网机器人自动抓取,非本站原创。 浮游电影网不对本文拥有版权,如有侵犯,请联系邮箱:fuyouu#yandex.com[#换成@]投诉。我们会在15个工作日内删除。 但烦请转载时请标明出处:“本文转载于『浮游电影网』,原文地址:https://www.fuyouu.com/20210926661.html

评论吧骚年!

发表你的见解   

昵称*

E-mail*(建议输入,以便收到博主回复的提示邮件)

验证码*

您可以使用eMule或eMule Mod(Windows)、aMule(Win、Linux、Mac)等软件下载eD2k链接。。
eMule收藏集(.emulecollection)文件是您选中的所有链接的列表文件。eMule可以直接下载它们。
按住SHIFT键选择可以选中多个选择框。
可用文件名和大小选择器来选择文件。
文件名选择器帮您根据文件名称或后缀来选择文件。不分大小写。
符号使用:
和:空格( )、+
不包含:-
或:|
转义:一对英文引号("");
匹配开头:^
匹配结尾:$
例如:
选中所有名称中包含有“eMule”或“0.49c”字眼,但不包含有“exe”字眼的:emule|0.49c -exe
选中所有名称的开头是“eMule”,结尾是“0.49c”的:^emule 0.49c$
选中所有名称中带有“eMule 0.49c”的(必须是“eMule 0.49c”,中间没有别的字符,不能是“eMule fake 0.49c”),需要转义:"emule 0.49c"
大小选择器帮您根据文件大小选择文件。