当前位置: 首页 >> 日韩电影 >> 管道[中文字幕].Pipeline.2021.1080p.TVN.WEB-DL.H264.AAC 4.04GB >> 正文

管道[中文字幕].Pipeline.2021.1080p.TVN.WEB-DL.H264.AAC 4.04GB

2021年08月27日 20:50:38     电影发布:来源于网络     电影分类:日韩电影     评论(0)    

管道[中文字幕].Pipeline.2021.1080p.TVN.WEB DL.H264.AAC 4.04GB 犯罪片 剧情片 日韩电影  第1张

◎译 名 管道 / 管线 / Pipeline

◎片 名 ?????

◎年 代 2021

◎产 地 韩国

◎类 别 剧情 / 犯罪

◎语 言 韩语

◎上映日期 2021-05-26(韩国)

◎IMDb链接 https://www.imdb.com/title/tt14716932/

◎豆瓣评分 5.9/10 (1208人评价)

◎豆瓣链接 https://movie.douban.com/subject/34777781/

◎片 长 108分钟

◎导 演 庾河 Ha Yu (id:1304207)

◎演 员 徐仁国 In-Guk Seo (id:1323405)

李洙赫 Soo-hyuk Lee (id:1313466)

音文硕 Moon-seok Eum (id:1400216)

太恒浩 Tae Hang-ho (id:1373779)

柳圣贤 Ryoo Seong-hyeon (id:1383040)

裴侑蓝 Bae Yoo-ram (id:1378640)

禹康民 Kang-min Woo (id:1436392)

◎标 签 李洙赫 / 徐仁国 / 韩国 / 韩国电影 / 剧情 / 2021 / 电影 / 2020

◎简 介

描述偷走了隐藏在韩国地底下数千亿的「油」并且梦想著要逆转人生的六位盗油者,以及他们之间所上演著的狗血团队合作故事,是一部犯罪娱乐电影,而盗油这类型的犯罪也是崭新的题材,也将出现个性鲜明的人物设定,想必剧情也将对大家带来畅快感受。by tvnhanju.com

  1. ##### MediaInfo ######

  2. General

  3. Unique ID : 183391041609223498112333291064526750560 (0x89F7D4717E0F478344847F16C9EDC360)

  4. Complete name : Pipeline.2021.1080p.TVN.WEB-DL.H264.AAC-10001@BBQDDQ.COM.mkv

  5. Format : Matroska

  6. Format version : Version 4

  7. File size : 4.04 GiB

  8. Duration : 1 h 47 min

  9. Overall bit rate mode : Variable

  10. Overall bit rate : 5 370 kb/s

  11. Encoded date : UTC 2021-08-26 14:28:04

  12. Writing application : mkvmerge v56.1.0 ('My Friend') 64-bit

  13. Writing library : libebml v1.4.2 + libmatroska v1.6.4

  14. Video

  15. ID : 1

  16. Format : AVC

  17. Format/Info : Advanced Video Codec

  18. Format profile : High@L4

  19. Format settings : CABAC / 2 Ref Frames

  20. Format settings, CABAC : Yes

  21. Format settings, Reference frames : 2 frames

  22. Codec ID : V_MPEG4/ISO/AVC

  23. Duration : 1 h 47 min

  24. Bit rate mode : Variable

  25. Bit rate : 5 234 kb/s

  26. Maximum bit rate : 6 000 kb/s

  27. Width : 1 920 pixels

  28. Height : 1 080 pixels

  29. Display aspect ratio : 16:9

  30. Frame rate mode : Constant

  31. Frame rate : 23.976 (24000/1001/53354) FPS

  32. Color space : YUV

  33. Chroma subsampling : 4:2:0

  34. Bit depth : 8 bits

  35. Scan type : Progressive

  36. Bits/(Pixel*Frame) : 0.105

  37. Stream size : 3.94 GiB (97%)

  38. Default : Yes

  39. Forced : No

  40. Audio

  41. ID : 2

  42. Format : AAC LC

  43. Format/Info : Advanced Audio Codec Low Complexity

  44. Codec ID : A_AAC-2

  45. Duration : 1 h 47 min

  46. Bit rate : 128 kb/s

  47. Channel(s) : 2 channels

  48. Channel layout : L R

  49. Sampling rate : 48.0 kHz

  50. Frame rate : 46.875 FPS (1024 SPF)

  51. Compression mode : Lossy

  52. Stream size : 98.7 MiB (2%)

  53. Language : Korean

  54. Default : Yes

  55. Forced : No

  56. Text

  57. ID : 3

  58. Format : UTF-8

  59. Codec ID : S_TEXT/UTF8

  60. Codec ID/Info : UTF-8 Plain Text

  61. Duration : 1 h 42 min

  62. Bit rate : 48 b/s

  63. Count of elements : 1476

  64. Stream size : 36.3 KiB (0%)

  65. Title : Chinese Simplified

  66. Language : Chinese

  67. Default : Yes

  68. Forced : No


文件下载


除非特别注明,本文『管道[中文字幕].Pipeline.2021.1080p.TVN.WEB-DL.H264.AAC 4.04GB』来源于互联网机器人自动抓取,非本站原创。 浮游电影网不对本文拥有版权,如有侵犯,请联系邮箱:fuyouu#yandex.com[#换成@]投诉。我们会在15个工作日内删除。 但烦请转载时请标明出处:“本文转载于『浮游电影网』,原文地址:https://www.fuyouu.com/20210827206.html

评论吧骚年!

发表你的见解   

昵称*

E-mail*(建议输入,以便收到博主回复的提示邮件)

验证码*

您可以使用eMule或eMule Mod(Windows)、aMule(Win、Linux、Mac)等软件下载eD2k链接。。
eMule收藏集(.emulecollection)文件是您选中的所有链接的列表文件。eMule可以直接下载它们。
按住SHIFT键选择可以选中多个选择框。
可用文件名和大小选择器来选择文件。
文件名选择器帮您根据文件名称或后缀来选择文件。不分大小写。
符号使用:
和:空格( )、+
不包含:-
或:|
转义:一对英文引号("");
匹配开头:^
匹配结尾:$
例如:
选中所有名称中包含有“eMule”或“0.49c”字眼,但不包含有“exe”字眼的:emule|0.49c -exe
选中所有名称的开头是“eMule”,结尾是“0.49c”的:^emule 0.49c$
选中所有名称中带有“eMule 0.49c”的(必须是“eMule 0.49c”,中间没有别的字符,不能是“eMule fake 0.49c”),需要转义:"emule 0.49c"
大小选择器帮您根据文件大小选择文件。