当前位置: 首页 >> 欧美电影 >> 黑客帝国:矩阵重启/黑客帝国4:矩阵重生.The.Matrix.4.Resurrections.2021.2160p.HMAX.WEB-DL.DDP5.1.Atmos.DV.MKV.无字 >> 正文

黑客帝国:矩阵重启/黑客帝国4:矩阵重生.The.Matrix.4.Resurrections.2021.2160p.HMAX.WEB-DL.DDP5.1.Atmos.DV.MKV.无字

2021年12月22日 17:03:28     电影发布:来源于网络     电影分类:欧美电影     评论(0)    

黑客帝国:矩阵重启/黑客帝国4:矩阵重生.The.Matrix.4.Resurrections.2021.2160p.HMAX.WEB DL.DDP5.1.Atmos.DV.MKV.无字 科幻片 动作片 欧美电影  第1张

◎译 名 黑客帝国:矩阵重启 / 黑客帝国4:矩阵重生 / 骇客帝国4 / 骇客任务:复活(台) / 22世纪杀人网络:复活次元(港) / 骇客任务4 / 黑客帝国:复兴

◎片 名 The Matrix Resurrections

◎年 代 2021

◎产 地 美国

◎类 别 动作 / 科幻

◎语 言 英语

◎上映日期 2022-01-14(中国大陆) / 2021-12-22(美国)

◎IMDb链接 https://www.imdb.com/title/tt10838180/

◎豆瓣链接 https://movie.douban.com/subject/34801038/

◎片 长 147分钟

◎导 演 拉娜·沃卓斯基 Lana Wachowski (id:1161012)

◎编 剧 拉娜·沃卓斯基 Lana Wachowski (id:1161012)

大卫·米切尔 David Mitchell (id:1262887)

亚历山大·赫蒙 Aleksandar Hemon (id:1421907)

◎演 员 基努·里维斯 Keanu Reeves (id:1008070)

凯瑞-安·莫斯 Carrie-Anne Moss (id:1022581)

叶海亚·阿卜杜勒-迈丁 Yahya Abdul-Mateen II (id:1374708)

杰西卡·亨维克 Jessica Henwick (id:1264859)

乔纳森·格罗夫 Jonathan Groff (id:1000002)

尼尔·帕特里克·哈里斯 Neil Patrick Harris (id:1017896)

佩丽冉卡·曹帕拉 Priyanka Chopra (id:1010638)

克里斯蒂娜·里奇 Christina Ricci (id:1035653)

特尔玛·霍普金斯 Telma Hopkins (id:1102143)

埃伦迪拉·伊瓦拉 Eréndira Ibarra (id:1348837)

托比·奥伍梅尔 Toby Onwumere (id:1365992)

马克思·雷迈特 Max Riemelt (id:1014166)

布莱恩·J·史密斯 Brian J. Smith (id:1027330)

贾达·萍克·史密斯 Jada Pinkett Smith (id:1054154)

丹尼尔·伯哈特 Daniel Bernhardt (id:1049890)

艾伦·霍尔曼 Ellen Hollman (id:1320496)

朗贝尔·维尔森 Lambert Wilson (id:1025263)

安德鲁·卡德威尔 Andrew Caldwell (id:1022810)

伊恩·皮里 Ian Pirie (id:1330287)

威廉·W·巴伯 William W. Barbour (id:1393373)

埃尔文·费利西达 Erwin Felicilda (id:1434119)

迈克尔·J·格温 Michael J. Gwynn (id:1393382)

Linda Joy Henry Linda Joy Henry (id:1458012)

约翰·洛巴托 John Lobato (id:1408760)

安妮-玛丽·奥尔森 Anne-Marie Olsen (id:1430741)

艾蒂安·维克 Etienne Vick (id:1373172)

克莱顿·华生 Clayton Watson (id:1000638)

詹姆斯·D·韦斯顿二世 James D. Weston II (id:1174478)

格兰特·希尔 Grant Hill (id:1286620)

詹姆斯·麦克特格 James McTeigue (id:1274963)

拉娜·沃卓斯基 Lana Wachowski (id:1161012)

约翰·托尔 John Toll (id:1276189)

卡门·古巴 Carmen Cuba (id:1431557)

◎标 签 科幻 / 经典 / 黑客帝国 / 美国 / 赛博朋克 / 动作 / 哲学 / 2021

◎简 介

尼奥(基努·里维斯 Keanu Reeves 饰)和崔妮蒂(凯瑞-安·莫斯 Carrie-Anne Moss 饰)重回矩阵:在这里,一个是矩阵创造出来,周而复始的日常世界,另一个则是隐藏其后,真实的人类世界。为了弄清楚自己所处的“现实”究竟是真是假,尼奥不得不再次做出选择……

◎获奖情况 (共1项)

第7届豆瓣电影年度榜单 (2020)

最值得期待的外语电影(提名)

  1. Video

  2. ID : 1

  3. Format : HEVC

  4. Format/Info : High Efficiency Video Coding

  5. Format profile : Main [email protected]@Main

  6. HDR format : Dolby Vision, Version 1.0, dvhe.05.06, BL+RPU

  7. Codec ID : V_MPEGH/ISO/HEVC

  8. Duration : 2 h 27 min

  9. Bit rate : 17.8 Mb/s

  10. Width : 3 840 pixels

  11. Height : 2 160 pixels

  12. Display aspect ratio : 16:9

  13. Frame rate mode : Constant

  14. Frame rate : 23.976 (24000/1001/53354) FPS

  15. Color space : YUV

  16. Chroma subsampling : 4:2:0

  17. Bit depth : 10 bits

  18. Bits/(Pixel*Frame) : 0.090

  19. Stream size : 18.4 GiB (96%)

  20. Writing library : x265 3.4hy:[Linux][GCC 7.5.0][64 bit] 10bit

  21. Encoding settings : cpuid=533541111039 / frame-threads=6 / no-wpp / no-pmode / no-pme / no-psnr / no-ssim / log-level=2 / input-csp=1 / input-res=3840x2160 / interlace=0 / total-frames=0 / level-idc=0 / high-tier=1 / uhd-bd=0 / ref=4 / no-allow-non-conformance / repeat-headers / annexb / aud / hrd / info / hash=0 / no-temporal-layers / no-open-gop / min-keyint=96 / keyint=96 / gop-lookahead=0 / bframes=4 / b-adapt=2 / b-pyramid / bframe-bias=0 / rc-lookahead=25 / lookahead-slices=4 / NTMzNTQ=uuDQuD2mJt9fsCf / scenecut=40 / hist-scenecut=0 / radl=0 / no-splice / no-intra-refresh / ctu=64 / min-cu-size=8 / rect / no-amp / max-tu-size=32 / tu-inter-depth=1 / tu-intra-depth=1 / limit-tu=0 / rdoq-level=2 / dynamic-rd=0.00 / no-ssim-rd / signhide / no-tskip / nr-intra=0 / nr-inter=0 / no-constrained-intra / strong-intra-smoothing / max-merge=3 / limit-refs=3 / limit-modes / me=3 / subme=3 / merange=57 / temporal-mvp / no-frame-dup / no-hme / weightp / no-weightb / no-analyze-src-pics / deblock=0:0 / sao / no-sao-non-deblock / rd=4 / selective-sao=4 / no-early-skip / rskip / no-fast-intra / no-tskip-fast / no-cu-lossless / no-b-intra / no-splitrd-skip / rdpenalty=0 / psy-rd=2.00 / psy-rdoq=1.00 / no-rd-refine / no-lossless / cbqpoffs=0 / crqpoffs=3 / rc=abr / bitrate=18000 / qcomp=0.60 / qpstep=4 / stats-write=0 / stats-read=2 / cplxblur=20.0 / qblur=0.5 / vbv-maxrate=24500 / vbv-bufsize=24500 / vbv-init=0.6 / vbv-end=0.6 / vbv-end-fr-adj=0.0 / ipratio=1.40 / pbratio=1.30 / aq-mode=2 / aq-strength=1.00 / cutree / zone-count=0 / no-strict-cbr / qg-size=32 / no-rc-grain / qpmax=69 / qpmin=0 / no-const-vbv / sar=1 / overscan=0 / videoformat=5 / range=1 / colorprim=2 / transfer=2 / colormatrix=2 / chromaloc=0 / display-window=0 / cll=0,0 / min-luma=0 / max-luma=1023 / log2-max-poc-lsb=8 / vui-timing-info / vui-hrd-info / no-concatenation / slices=1 / no-opt-qp-pps / no-opt-ref-list-length-pps / no-multi-pass-opt-rps / scenecut-bias=0.05 / hist-threshold=0.01 / no-opt-cu-delta-qp / no-aq-motion / no-hdr10 / no-hdr10-opt / no-dhdr10-opt / no-idr-recovery-sei / analysis-reuse-level=0 / analysis-save-reuse-level=0 / analysis-load-reuse-level=0 / scale-factor=0 / refine-intra=0 / refine-inter=0 / refine-mv=1 / refine-ctu-distortion=0 / no-limit-sao / ctu-info=0 / no-lowpass-dct / refine-analysis-type=0 / copy-pic=1 / max-ausize-factor=1.0 / no-dynamic-refine / no-single-sei / no-hevc-aq / no-svt / no-field / qp-adaptation-range=1.00 / no-scenecut-aware-qpconformance-window-offsets / right=0 / bottom=0 / NTMzNTQ= / decoder-max-rate=0

  22. Language : English

  23. Default : Yes

  24. Forced : No

  25. Color range : Full


  26. Audio

  27. ID : 2

  28. Format : E-AC-3 JOC

  29. Format/Info : Enhanced AC-3 with Joint Object Coding

  30. Commercial name : Dolby Digital Plus with Dolby Atmos

  31. Codec ID : A_EAC3

  32. Duration : 2 h 27 min

  33. Bit rate mode : Constant

  34. Bit rate : 768 kb/s

  35. Channel(s) : 6 channels

  36. Channel layout : L R C LFE Ls Rs

  37. Sampling rate : 48.0 kHz

  38. Frame rate : 31.250 FPS (1536 SPF)

  39. Compression mode : Lossy

  40. Stream size : 813 MiB (4%)

  41. Language : English

  42. Service kind : Complete Main

  43. Default : Yes

  44. Forced : No

  45. Complexity index : 16

  46. Number of dynamic objects : 15

  47. Bed channel count : 1 channel

  48. Bed channel configuration : LFE


  49. Text #1

  50. ID : 3

  51. Format : UTF-8

  52. Codec ID : S_TEXT/UTF8

  53. Codec ID/Info : UTF-8 Plain Text

  54. Duration : 2 h 27 min

  55. Bit rate : 51 b/s

  56. Count of elements : 2185

  57. Stream size : 55.7 KiB (0%)

  58. Title : English [CC]

  59. Language : English

  60. Default : No

  61. Forced : No


  62. Text #2

  63. ID : 4

  64. Format : UTF-8

  65. Codec ID : S_TEXT/UTF8

  66. Codec ID/Info : UTF-8 Plain Text

  67. Duration : 2 h 27 min

  68. Bit rate : 52 b/s

  69. Count of elements : 2129

  70. Stream size : 57.1 KiB (0%)

  71. Title : Latin American Spanish [CC]

  72. Language : Spanish

  73. Default : No

  74. Forced : No



中文字幕

https://www.fuyouu.com/19461.html



文件下载


除非特别注明,本文『黑客帝国:矩阵重启/黑客帝国4:矩阵重生.The.Matrix.4.Resurrections.2021.2160p.HMAX.WEB-DL.DDP5.1.Atmos.DV.MKV.无字』来源于互联网机器人自动抓取,非本站原创。 浮游电影网不对本文拥有版权,如有侵犯,请联系邮箱:fuyouu#yandex.com[#换成@]投诉。我们会在15个工作日内删除。 但烦请转载时请标明出处:“本文转载于『浮游电影网』,原文地址:https://www.fuyouu.com/19460.html

评论吧骚年!

发表你的见解   

昵称*

E-mail*(建议输入,以便收到博主回复的提示邮件)

验证码*

您可以使用eMule或eMule Mod(Windows)、aMule(Win、Linux、Mac)等软件下载eD2k链接。。
eMule收藏集(.emulecollection)文件是您选中的所有链接的列表文件。eMule可以直接下载它们。
按住SHIFT键选择可以选中多个选择框。
可用文件名和大小选择器来选择文件。
文件名选择器帮您根据文件名称或后缀来选择文件。不分大小写。
符号使用:
和:空格( )、+
不包含:-
或:|
转义:一对英文引号("");
匹配开头:^
匹配结尾:$
例如:
选中所有名称中包含有“eMule”或“0.49c”字眼,但不包含有“exe”字眼的:emule|0.49c -exe
选中所有名称的开头是“eMule”,结尾是“0.49c”的:^emule 0.49c$
选中所有名称中带有“eMule 0.49c”的(必须是“eMule 0.49c”,中间没有别的字符,不能是“eMule fake 0.49c”),需要转义:"emule 0.49c"
大小选择器帮您根据文件大小选择文件。