当前位置: 首页 >> 日韩电视剧 >> [咒怨:诅咒之家][全6集][国日双语内封简繁英软字幕.无水印][NF.WEB-DL.X265.DDP5.1][1080P][DHTCLUB] >> 正文

[咒怨:诅咒之家][全6集][国日双语内封简繁英软字幕.无水印][NF.WEB-DL.X265.DDP5.1][1080P][DHTCLUB]

2021年12月15日 22:53:56     电影发布:来源于网络     电影分类:日韩电视剧     评论(0)    

[咒怨:诅咒之家][全6集][国日双语内封简繁英软字幕.无水印][NF.WEB DL.X265.DDP5.1][1080P][DHTCLUB] 恐怖片 日韩电视剧  第1张


◎译 名 咒怨:诅咒之家 / JU-ON: Origins / The Grudge / 剧版咒怨 / 咒怨之始(港 / 台) / 咒怨之源

◎片 名 呪怨:呪いの家

◎年 代 2020

◎产 地 日本

◎类 别 恐怖

◎语 言 日语

◎上映日期 2020-07-03(日本)

◎IMDb链接 https://www.imdb.com/title/tt10589922

◎豆瓣评分 7.6/10 from 190 users

◎豆瓣链接 https://movie.douban.com/subject/34443566

◎集 数 6

◎片 长 30分钟

◎导 演 三宅唱 Sho Miyake

◎编 剧 高桥洋 Hiroshi Takahashi / 一濑隆重 Takashige Ichise

◎主 演 荒川良良 YosiYosi Arakawa

黑岛结菜 Yuina Kuroshima

里里花 Ririka

长村航希 Koki Osamura

高桥真唯 Mai Takahashi

井之胁海 Kai Inowaki

郑龙进 Ryushin Tei

松浦祐也 Yûya Matsuura

土村芳 Kaho Tsuchimura

柄本时生 Tokio Emoto

仙道敦子 Nobuko Sendô

仓科加奈 Kana Kurashina

◎标 签 恐怖 | Netflix | 咒怨 | 日本 | 惊悚 | 2020 | 悬疑 | 灵异

◎简 介

新秀艺人遥在深夜被家里传来的脚步声所困扰,跟电视综艺节目认识的心灵研究家小田岛商量这件事后所展开的恐怖的故事。

虽然至今为止还不太为人所知,但“咒怨”是参考实际发生的事情为而誔生的。此次的连续剧系列中,首次揭开在源头的“诅咒之家”中发生的许多憎恶的事件。然后,随着从那里蔓延开来的“连锁的诅咒”。这群人有办法逃离鬼屋的诅咒吗?这栋被下咒的房子以前又出过什么可怕的事?


[咒怨:诅咒之家][全6集][国日双语内封简繁英软字幕.无水印][NF.WEB DL.X265.DDP5.1][1080P][DHTCLUB] 恐怖片 日韩电视剧  第2张


General

Unique ID : 84236801411733911955602258393245347456 (0x3F5F6AF6A221CDBF0421C8BEBACEEE80)

Format : Matroska

Format version : Version 4

File size : 1.30 GiB

Duration : 28 min 22 s

Overall bit rate : 6 579 kb/s

Encoded date : UTC 2020-07-03 07:01:54 / UTC 2020-07-01 23:20:17

Writing application : mkvmerge v41.0.0 ('Smarra') 64-bit

Writing library : libebml v1.3.9 + libmatroska v1.5.2 / Lavf58.1.0

Video

ID : 1

Format : HEVC

Format/Info : High Efficiency Video Coding

Format profile : Main [email protected]@Main

Codec ID : V_MPEGH/ISO/HEVC

Duration : 28 min 22 s

Bit rate : 5 168 kb/s

Width : 1 920 pixels

Height : 1 080 pixels

Display aspect ratio : 16:9

Frame rate mode : Constant

Frame rate : 24.000 FPS

Color space : YUV

Chroma subsampling : 4:2:0

Bit depth : 10 bits

Bits/(Pixel*Frame) : 0.104

Stream size : 1.02 GiB (79%)

Default : Yes

Forced : No

Color range : Limited

Color primaries : BT.709

Transfer characteristics : BT.709

Matrix coefficients : BT.709

Duration_Source : General_Duration

Audio #1

ID : 2

Format : E-AC-3

Format/Info : Enhanced AC-3

Commercial name : Dolby Digital Plus

Codec ID : A_EAC3

Duration : 28 min 22 s

Bit rate mode : Constant

Bit rate : 640 kb/s

Channel(s) : 6 channels

Channel layout : L R C LFE Ls Rs

Sampling rate : 48.0 kHz

Frame rate : 31.250 FPS (1536 SPF)

Compression mode : Lossy

Stream size : 130 MiB (10%)

Title : 日本語 [Original]

Language : Japanese

Service kind : Complete Main

Default : Yes

Forced : No

Encoded date : UTC 2020-07-01 23:20:18

Duration_Source : General_Duration

Audio #2

ID : 3

Format : E-AC-3

Format/Info : Enhanced AC-3

Commercial name : Dolby Digital Plus

Codec ID : A_EAC3

Duration : 28 min 22 s

Bit rate mode : Constant

Bit rate : 640 kb/s

Channel(s) : 6 channels

Channel layout : L R C LFE Ls Rs

Sampling rate : 48.0 kHz

Frame rate : 31.250 FPS (1536 SPF)

Compression mode : Lossy

Stream size : 130 MiB (10%)

Title : 普通话

Language : Chinese

Service kind : Complete Main

Default : No

Forced : No

Encoded date : UTC 2020-07-01 23:20:17

Duration_Source : General_Duration

Text #1

ID : 4

Format : UTF-8

Codec ID : S_TEXT/UTF8

Codec ID/Info : UTF-8 Plain Text

Title : English

Language : English

Default : Yes

Forced : Yes

Text #2

ID : 5

Format : UTF-8

Codec ID : S_TEXT/UTF8

Codec ID/Info : UTF-8 Plain Text

Title : 中文(简体)

Language : Chinese

Default : No

Forced : No

Text #3

ID : 6

Format : UTF-8

Codec ID : S_TEXT/UTF8

Codec ID/Info : UTF-8 Plain Text

Title : 中文(繁體)

Language : Chinese

Default : No

Forced : No


注意:本版本除了日语音轨之外,还包含一条国语音轨!!!



文件下载




除非特别注明,本文『[咒怨:诅咒之家][全6集][国日双语内封简繁英软字幕.无水印][NF.WEB-DL.X265.DDP5.1][1080P][DHTCLUB]』来源于互联网机器人自动抓取,非本站原创。 浮游电影网不对本文拥有版权,如有侵犯,请联系邮箱:fuyouu#yandex.com[#换成@]投诉。我们会在15个工作日内删除。 但烦请转载时请标明出处:“本文转载于『浮游电影网』,原文地址:https://www.fuyouu.com/19320.html

评论吧骚年!

发表你的见解   

昵称*

E-mail*(建议输入,以便收到博主回复的提示邮件)

验证码*

您可以使用eMule或eMule Mod(Windows)、aMule(Win、Linux、Mac)等软件下载eD2k链接。。
eMule收藏集(.emulecollection)文件是您选中的所有链接的列表文件。eMule可以直接下载它们。
按住SHIFT键选择可以选中多个选择框。
可用文件名和大小选择器来选择文件。
文件名选择器帮您根据文件名称或后缀来选择文件。不分大小写。
符号使用:
和:空格( )、+
不包含:-
或:|
转义:一对英文引号("");
匹配开头:^
匹配结尾:$
例如:
选中所有名称中包含有“eMule”或“0.49c”字眼,但不包含有“exe”字眼的:emule|0.49c -exe
选中所有名称的开头是“eMule”,结尾是“0.49c”的:^emule 0.49c$
选中所有名称中带有“eMule 0.49c”的(必须是“eMule 0.49c”,中间没有别的字符,不能是“eMule fake 0.49c”),需要转义:"emule 0.49c"
大小选择器帮您根据文件大小选择文件。