当前位置: 首页 >> 欧美电影 >> 锅匠,裁缝,士兵,间谍[国英多音轨/简繁字幕].2011.UHD.BluRay.2160p.x265.10bit.DoVi.mUHD-btbt9527.com 23.18GB >> 正文

锅匠,裁缝,士兵,间谍[国英多音轨/简繁字幕].2011.UHD.BluRay.2160p.x265.10bit.DoVi.mUHD-btbt9527.com 23.18GB

2021年12月15日 10:58:20     电影发布:来源于网络     电影分类:欧美电影     评论(0)    

锅匠,裁缝,士兵,间谍[国英多音轨/简繁字幕].2011.UHD.BluRay.2160p.x265.10bit.DoVi.mUHD btbt9527.com 23.18GB 悬疑片 惊悚片 剧情片 欧美电影  第1张

◎译 名 锅匠,裁缝,士兵,间谍 / 谍网谜踪(港) / 谍影行动(台) / 间谍疑云 / 谍影情仇 / 锅匠

◎片 名 Tinker Tailor Soldier Spy

◎年 代 2011

◎产 地 英国 / 法国 / 德国

◎类 别 剧情 / 悬疑 / 惊悚

◎语 言 英语 / 法语 / 俄语 / 匈牙利语 / 土耳其语

◎上映日期 2011-09-16(英国)

◎IMDb链接 https://www.imdb.com/title/tt1340800/

◎豆瓣评分 7.9/10 (101021人评价)

◎豆瓣链接 https://movie.douban.com/subject/3338851/

◎片 长 127分钟

◎导 演 托马斯·阿尔弗莱德森 Tomas Alfredson (id:1000317)

◎编 剧 约翰·勒·卡雷 John le Carré (id:1112548)

布里奇·奥康纳 Bridget O'Connor (id:1324814)

彼特·斯特劳恩 Peter Straughan (id:1324815)

◎演 员 加里·奥德曼 Gary Oldman (id:1010507)

科林·费尔斯 Colin Firth (id:1031223)

汤姆·哈迪 Tom Hardy (id:1049489)

约翰·赫特 John Hurt (id:1004587)

托比·琼斯 Toby Jones (id:1107884)

马克·斯特朗 Mark Strong (id:1274374)

本尼迪克特·康伯巴奇 Benedict Cumberbatch (id:1009405)

塞伦·希德 Ciarán Hinds (id:1004586)

大卫·丹席克 David Dencik (id:1276058)

赛佛兰娜·科契柯娃 Svetlana Khodchenkova (id:1206334)

劳拉·卡尔迈克尔 Laura Carmichael (id:1315439)

斯蒂芬·格拉汉姆 Stephen Graham (id:1025229)

杰瑞德·哈里斯 Jared Harris (id:1049700)

约翰·勒·卡雷 John le Carré (id:1112548)

康斯坦丁·哈宾斯基 Konstantin Khabensky (id:1107328)

西蒙·迈克伯尼 Simon McBurney (id:1049805)

罗格·洛伊德-派克 Roger Lloyd-Pack (id:1124002)

斯图尔特·格雷厄姆 Stuart Graham (id:1285282)

克里斯蒂安·麦凯 Christian McKay (id:1274941)

凯西·伯克 Kathy Burke (id:1018250)

杰米·托马斯·金 Jamie Thomas King (id:1215599)

菲利普·马丁·布朗 Philip Martin Brown (id:1076791)

托马什·科瓦尔斯基 Tomasz Kowalski (id:1261118)

哈维·沃尔什 Harvey Walsh (id:1376799)

皮特·摩根 Peter Morgan (id:1000371)

蒂姆·贝文 Tim Bevan (id:1278562)

阿尔维托·伊格莱西亚斯 Alberto Iglesias (id:1287288)

霍伊特·范·霍特玛 Hoyte Van Hoytema (id:1028306)

吉娜·杰 Jina Jay (id:1395105)

米凯尔·马奇曼 Mikael Marcimain (id:1033435)

◎标 签 英国 / 悬疑 / 间谍 / GaryOldman / 剧情 / ColinFirth / BenedictCumberbatch / 2011

◎简 介

冷战时,全球两大特工组织——俄罗斯“中心”与英国“圆场”明争暗斗。特工遇害,高层震怒,责成“圆场”挖出“地鼠”。怀疑对象共有5人,即圆场上任“老总”命名的锅匠,裁缝,士兵,穷人,乞丐。其中,金盆洗手的“乞丐”乔治·史迈利(加里·奥德曼 Gary Oldman 饰)本来有重大嫌疑。某日,行动组-剥头皮组头目的彼得·吉勒姆(本尼迪克特·康伯巴奇 Benedict Cumberbatch 饰)与英国内阁办公室谍报总监拉康排除了史迈利的嫌疑,令其重新出山,负责挖出“地鼠”。于是,史迈利开始分别走访故人,调查“圆场”老大阿勒莱恩,裁缝-比尔·海顿(科林·费斯 Colin Firth 饰),士兵-掌管东欧事务的资深间谍罗埃·布兰德,穷人-后勤部门点路灯组组长托比·伊斯特哈斯。一时间,圆场疑云密布,人人自危,究竟谁才是“地鼠”……

本片本片根据约翰·勒卡雷的同名小...

◎获奖情况 (共14项)

第84届奥斯卡金像奖 (2012)

最佳男主角(提名)

└──加里·奥德曼 (id:1010507)

最佳改编剧本(提名)

最佳原创配乐(提名)

└──阿尔维托·伊格莱西亚斯 (id:1287288)

第68届威尼斯电影节 (2011)

金狮奖(提名)

└──托马斯·阿尔弗莱德森 (id:1000317)

第25届欧洲电影奖 (2012)

观众选择奖(提名)

└──托马斯·阿尔弗莱德森 (id:1000317)

最佳男主角(提名)

└──加里·奥德曼 (id:1010507)

最佳摄影(提名)

└──霍伊特·范·霍特玛 (id:1028306)

最佳配乐

└──阿尔维托·伊格莱西亚斯 (id:1287288)

最佳美术设计

└──玛丽亚·朱科维克 (id:1282498)

第10届华盛顿影评人协会奖 (2011)

最佳改编剧本(提名)

第24届芝加哥影评人协会奖 (2011)

最佳男主角(提名)

└──加里·奥德曼 (id:1010507)

最佳改编剧本(提名)

第11届凤凰城影评人协会奖 (2011)

最佳男主角(提名)

└──加里·奥德曼 (id:1010507)

第2届豆瓣电影鑫像奖 (2012)

鑫豆单元 最佳男演员(外语)

└──加里·奥德曼 (id:1010507)

  1. ##### MediaInfo ######

  2. General

  3. Unique ID : 195418779874888236440694267377932002686 (0x930449B96DBB540C31162F3CB027657E)

  4. Complete name : Tinker.Tail[email protected]MKVHome.mkv

  5. Format : Matroska

  6. Format version : Version 4

  7. File size : 23.2 GiB

  8. Duration : 2 h 7 min

  9. Overall bit rate mode : Variable

  10. Overall bit rate : 26.1 Mb/s

  11. Encoded date : UTC 2021-12-13 12:21:06

  12. Writing application : mkvmerge v62.0.0 ('Apollo') 64-bit

  13. Writing library : libebml v1.4.2 + libmatroska v1.6.4


  14. Video

  15. ID : 1

  16. Format : HEVC

  17. Format/Info : High Efficiency Video Coding

  18. Format profile : Main [email protected]@High

  19. HDR format : SMPTE ST 2086, HDR10 compatible

  20. Codec ID : V_MPEGH/ISO/HEVC

  21. Duration : 2 h 7 min

  22. Bit rate : 20.9 Mb/s

  23. Width : 3 840 pixels

  24. Height : 1 636 pixels

  25. Display aspect ratio : 2.35:1

  26. Frame rate mode : Constant

  27. Frame rate : 23.976 (24000/1001/53354) FPS

  28. Color space : YUV

  29. Chroma subsampling : 4:2:0

  30. Bit depth : 10 bits

  31. Bits/(Pixel*Frame) : 0.139

  32. Stream size : 18.6 GiB (80%)

  33. Writing library : x265 3.3+3-g8f8e332f1+29:[Windows][#Erg`Djh#][@Yuuki] made by @Dongfangbubai

  34. Encoding settings : rc=crf / crf=19.6000 / qcomp=0.70 / qpstep=4 / stats-write=0 / stats-read=0 / vbv-maxrate=160000 / vbv-bufsize=160000 / vbv-init=0.9 / crf-max=0.0 / crf-min=0.0 / no-lossless / no-cu-lossless / aq-mode=3 / aq-strength=0.80 / cbqpoffs=-3 / crqpoffs=-3 / ipratio=1.40 / pbratio=1.30 / psy-rd=2.00 / psy-rdoq=3.00 / deblock=-1:-1 / ref=5 / limit-refs=0 / no-limit-modes / bframes=8 / b-adapt=2 / bframe-bias=0 / b-pyramid / b-intra / weightp / weightb / min-keyint=23 / max-keyint=240 / rc-lookahead=60 / gop-lookahead=0 / NTMzNTQ=uuDQuD2mJt9fsCf / scenecut=40 / hist-scenecut=0 / radl=0 / max-cu-size=32 / min-cu-size=8 / me=3 / subme=4 / merange=25 / rdoq-level=2 / rd=4 / rdpenalty=1 / dynamic-rd=0.00 / no-rd-refine / ----- / no-cutree / no-sao / no-rect / no-amp / no-open-gop / wpp / pmode / pme / no-psnr / no-ssim / nr-intra=0 / nr-inter=0 / no-constrained-intra / no-strong-intra-smoothing / max-tu-size=32 / tu-inter-depth=2 / tu-intra-depth=2 / limit-tu=0 / qg-size=32 / qpmax=69 / qpmin=0 / ----- / cpuid=533541176575 / frame-threads=6 / numa-pools=54,- / log-level=2 / input-csp=1 / input-res=3840x1636 / interlace=0 / level-idc=0 / high-tier=1 / uhd-bd=0 / no-allow-non-conformance / repeat-headers / aud / hrd / info / hash=0 / no-temporal-layers / lookahead-slices=0 / no-splice / no-intra-refresh / no-ssim-rd / signhide / no-tskip / max-merge=3 / temporal-mvp / no-frame-dup / no-hme / no-analyze-src-pics / no-sao-non-deblock / selective-sao=0 / no-early-skip / no-rskip / no-fast-intra / no-tskip-fast / no-splitrd-skip / zone-count=0 / no-strict-cbr / no-rc-grain / no-const-vbv / sar=0 / overscan=0 / videoformat=5 / range=0 / colorprim=9 / transfer=16 / colormatrix=9 / chromaloc=0 / display-window=0 / master-display=G(13250,34500)B(7500,3000)R(34000,16000)WP(15635,16450)L(10000000,1) / cll=0,0 / min-luma=0 / max-luma=1023 / log2-max-poc-lsb=8 / vui-timing-info / vui-hrd-info / slices=1 / no-opt-qp-pps / no-opt-ref-list-length-pps / no-multi-pass-opt-rps / scenecut-bias=0.05 / hist-threshold=0.01 / no-opt-cu-delta-qp / no-aq-motion / hdr10 / hdr10-opt / no-dhdr10-opt / no-idr-recovery-sei / analysis-reuse-level=0 / analysis-save-reuse-level=0 / analysis-load-reuse-level=0 / scale-factor=0 / refine-intra=0 / refine-inter=0 / refine-mv=1 / refine-ctu-distortion=0 / no-limit-sao / ctu-info=0 / no-lowpass-dct / refine-analysis-type=0 / copy-pic=1 / max-ausize-factor=1.0 / no-dynamic-refine / no-single-sei / no-hevc-aq / no-svt / no-field / qp-adaptation-range=1.00 / no-scenecut-aware-qpconformance-window-offsets / right=0 / bottom=0 / NTMzNTQ=

  35. Default : Yes

  36. Forced : No

  37. Color range : Limited

  38. Color primaries : BT.2020

  39. Transfer characteristics : PQ

  40. Matrix coefficients : BT.2020 non-constant

  41. Mastering display color primaries : Display P3

  42. Mastering display luminance : min: 0.0001 cd/m2, max: 1000 cd/m2


  43. Audio #1

  44. ID : 2

  45. Format : DTS XLL

  46. Format/Info : Digital Theater Systems

  47. Commercial name : DTS-HD Master Audio

  48. Codec ID : A_DTS

  49. Duration : 2 h 7 min

  50. Bit rate mode : Variable

  51. Bit rate : 3 230 kb/s

  52. Channel(s) : 6 channels

  53. Channel layout : C L R Ls Rs LFE

  54. Sampling rate : 48.0 kHz

  55. Frame rate : 93.750 FPS (512 SPF)

  56. Bit depth : 24 bits

  57. Compression mode : Lossless

  58. Stream size : 2.87 GiB (12%)

  59. Title : 英语

  60. Language : English

  61. Default : Yes

  62. Forced : No


  63. Audio #2

  64. ID : 3

  65. Format : DTS XLL

  66. Format/Info : Digital Theater Systems

  67. Commercial name : DTS-HD Master Audio

  68. Codec ID : A_DTS

  69. Duration : 2 h 7 min

  70. Bit rate mode : Variable

  71. Bit rate : 1 828 kb/s

  72. Channel(s) : 6 channels

  73. Channel layout : C L R Ls Rs LFE

  74. Sampling rate : 48.0 kHz

  75. Frame rate : 93.750 FPS (512 SPF)

  76. Bit depth : 16 bits

  77. Compression mode : Lossless

  78. Delay relative to video : 9 ms

  79. Stream size : 1.63 GiB (7%)

  80. Title : 央视国语

  81. Language : Chinese

  82. Default : No

  83. Forced : No


  84. Text #1

  85. ID : 4

  86. Format : PGS

  87. Muxing mode : zlib

  88. Codec ID : S_HDMV/PGS

  89. Codec ID/Info : Picture based subtitle format used on BDs/HD-DVDs

  90. Duration : 2 h 1 min

  91. Bit rate : 83.8 kb/s

  92. Count of elements : 6574

  93. Stream size : 72.7 MiB (0%)

  94. Title : 国配特效

  95. Language : Chinese

  96. Default : Yes

  97. Forced : No


  98. Text #2

  99. ID : 5

  100. Format : PGS

  101. Muxing mode : zlib

  102. Codec ID : S_HDMV/PGS

  103. Codec ID/Info : Picture based subtitle format used on BDs/HD-DVDs

  104. Duration : 2 h 1 min

  105. Bit rate : 104 kb/s

  106. Count of elements : 6573

  107. Stream size : 90.5 MiB (0%)

  108. Title : 中英特效

  109. Language : Chinese

  110. Default : No

  111. Forced : No


  112. Text #3

  113. ID : 6

  114. Format : PGS

  115. Muxing mode : zlib

  116. Codec ID : S_HDMV/PGS

  117. Codec ID/Info : Picture based subtitle format used on BDs/HD-DVDs

  118. Duration : 1 h 56 min

  119. Bit rate : 18.5 kb/s

  120. Count of elements : 2292

  121. Stream size : 15.5 MiB (0%)

  122. Title : 官方简中

  123. Language : Chinese

  124. Default : No

  125. Forced : No


  126. Text #4

  127. ID : 7

  128. Format : PGS

  129. Muxing mode : zlib

  130. Codec ID : S_HDMV/PGS

  131. Codec ID/Info : Picture based subtitle format used on BDs/HD-DVDs

  132. Duration : 1 h 56 min

  133. Bit rate : 18.6 kb/s

  134. Count of elements : 2292

  135. Stream size : 15.6 MiB (0%)

  136. Title : 官方繁中

  137. Language : Chinese

  138. Default : No

  139. Forced : No


  140. Menu

  141. 00:00:00.000 : en:Chapter 01

  142. 00:10:15.239 : en:Chapter 02

  143. 00:18:56.926 : en:Chapter 03

  144. 00:28:27.579 : en:Chapter 04

  145. 00:39:04.425 : en:Chapter 05

  146. 00:50:57.636 : en:Chapter 06

  147. 01:00:06.728 : en:Chapter 07

  148. 01:07:56.447 : en:Chapter 08

  149. 01:28:44.027 : en:Chapter 09

  150. 01:37:24.712 : en:Chapter 10

  151. 01:45:57.350 : en:Chapter 11

  152. 01:54:44.002 : en:Chapter 12

  153. 02:04:13.362 : en:Chapter 13




复制代码



文件下载


除非特别注明,本文『锅匠,裁缝,士兵,间谍[国英多音轨/简繁字幕].2011.UHD.BluRay.2160p.x265.10bit.DoVi.mUHD-btbt9527.com 23.18GB』来源于互联网机器人自动抓取,非本站原创。 浮游电影网不对本文拥有版权,如有侵犯,请联系邮箱:fuyouu#yandex.com[#换成@]投诉。我们会在15个工作日内删除。 但烦请转载时请标明出处:“本文转载于『浮游电影网』,原文地址:https://www.fuyouu.com/19318.html

评论吧骚年!

发表你的见解   

昵称*

E-mail*(建议输入,以便收到博主回复的提示邮件)

验证码*

您可以使用eMule或eMule Mod(Windows)、aMule(Win、Linux、Mac)等软件下载eD2k链接。。
eMule收藏集(.emulecollection)文件是您选中的所有链接的列表文件。eMule可以直接下载它们。
按住SHIFT键选择可以选中多个选择框。
可用文件名和大小选择器来选择文件。
文件名选择器帮您根据文件名称或后缀来选择文件。不分大小写。
符号使用:
和:空格( )、+
不包含:-
或:|
转义:一对英文引号("");
匹配开头:^
匹配结尾:$
例如:
选中所有名称中包含有“eMule”或“0.49c”字眼,但不包含有“exe”字眼的:emule|0.49c -exe
选中所有名称的开头是“eMule”,结尾是“0.49c”的:^emule 0.49c$
选中所有名称中带有“eMule 0.49c”的(必须是“eMule 0.49c”,中间没有别的字符,不能是“eMule fake 0.49c”),需要转义:"emule 0.49c"
大小选择器帮您根据文件大小选择文件。