当前位置: 首页 >> 欧美电影 >> 终极标靶[国英多音轨/简繁字幕].Hard.Target.1993.UHD.BluRay.2160p.x265.10bit.HDR.3Audio.mUHD-btbt9527.com 21.14GB >> 正文

终极标靶[国英多音轨/简繁字幕].Hard.Target.1993.UHD.BluRay.2160p.x265.10bit.HDR.3Audio.mUHD-btbt9527.com 21.14GB

2021年12月13日 21:33:59     电影发布:来源于网络     电影分类:欧美电影     评论(0)    

终极标靶[国英多音轨/简繁字幕].Hard.Target.1993.UHD.BluRay.2160p.x265.10bit.HDR.3Audio.mUHD btbt9527.com 21.14GB 犯罪片 惊悚片 动作片 欧美电影  第1张

◎译 名 终极标靶

◎片 名 Hard Target

◎年 代 1993

◎产 地 美国

◎类 别 动作 / 惊悚 / 犯罪

◎语 言 英语 / 法语

◎上映日期 1993-11-04(美国)

◎IMDb链接 https://www.imdb.com/title/tt0107076/

◎豆瓣评分 6.6/10 (4119人评价)

◎豆瓣链接 https://movie.douban.com/subject/1295871/

◎片 长 97分钟

◎导 演 吴宇森 John Woo (id:1027853)

◎编 剧 查克·费尔 Chuck Pfarrer (id:1294429)

◎演 员 尚格·云顿 Jean-Claude Van Damme (id:1027149)

查克·费尔 Chuck Pfarrer (id:1294429)

阿诺德·沃斯洛 Arnold Vosloo (id:1017973)

兰斯·亨利克森 Lance Henriksen (id:1048140)

杨茜·巴特勒 Yancy Butler (id:1009339)

威利·C·卡彭特 Willie C. Carpenter (id:1371548)

卡斯·莱蒙斯 Kasi Lemmons (id:1032369)

埃利奥特·基纳 Eliott Keener (id:1105090)

马科·圣约翰 Marco St. John (id:1045298)

泰德·雷米 Ted Raimi (id:1036535)

史文-欧尔·托尔森 Sven-Ole Thorsen (id:1027355)

朱尔斯·西尔维斯特 Jules Sylvester (id:1154618)

威尔福德·布利姆雷 Wilford Brimley (id:1027865)

Robert Pavlovich Robert Pavlovich (id:1136561)

Joe Warfield Joe Warfield (id:1169167)

查克·费尔 Chuck Pfarrer (id:1294429)

William H. Burton William H. Burton (id:1279712)

Dennis Maguire Dennis Maguire (id:1290727)

◎标 签 动作 / 吴宇森 / 尚格·云顿 / 美国 / 美国电影 / 1993 / 暴力 / 犯罪

◎简 介

娜塔莎(杨茜?巴特勒 Yancy Butler 饰)年轻富有,这次专门来到新奥尔良市寻找自己失散多年的退伍的父亲。然而她刚踏入这个城市就遭到了抢劫,失业海员赞斯(尚格?云顿 Jean-Claude Van Damme 饰)见义勇为帮她打走了匪徒。娜塔莎见赞斯富有正义感,就聘请他为自己寻找父亲,为存够钱重新出海的赞斯欣然答应。

不久,警方找到了被火烧焦了的娜塔莎的父亲。直觉敏锐的赞斯觉得事情不简单,他在现场仔细搜寻,终于发现了被箭射穿的娜塔莎父亲的士兵牌,从而确定了娜塔莎父亲是被人射杀的。赞斯和娜塔莎通过调查,发现了新奥尔良市有一伙暴徒,他们专门找一些无依靠的退伍军人,然后让富人们像猎杀动物一样猎杀他们。赞斯和娜塔莎决心要将这伙冷酷的暴徒乘之于法!

  1. ##### MediaInfo ######

  2. General

  3. Unique ID : 188617190651153161490714573801651231204 (0x8DE6597C1DF413B734030E024640D9E4)

  4. Complete name : Har[email protected]MKVHome.mkv

  5. Format : Matroska

  6. Format version : Version 4

  7. File size : 21.1 GiB

  8. Duration : 1 h 39 min

  9. Overall bit rate mode : Variable

  10. Overall bit rate : 30.4 Mb/s

  11. Encoded date : UTC 2021-12-12 13:47:06

  12. Writing application : mkvmerge v62.0.0 ('Apollo') 64-bit

  13. Writing library : libebml v1.4.2 + libmatroska v1.6.4


  14. Video

  15. ID : 1

  16. Format : HEVC

  17. Format/Info : High Efficiency Video Coding

  18. Format profile : Main [email protected]@High

  19. HDR format : SMPTE ST 2086, HDR10 compatible

  20. Codec ID : V_MPEGH/ISO/HEVC

  21. Duration : 1 h 39 min

  22. Bit rate : 23.8 Mb/s

  23. Width : 3 840 pixels

  24. Height : 2 076 pixels

  25. Display aspect ratio : 1.85:1

  26. Frame rate mode : Constant

  27. Frame rate : 24.000 FPS

  28. Color space : YUV

  29. Chroma subsampling : 4:2:0

  30. Bit depth : 10 bits

  31. Bits/(Pixel*Frame) : 0.125

  32. Stream size : 16.6 GiB (78%)

  33. Writing library : x265 3.3+3-g8f8e332f1+29:[Windows][#Erg`Djh#][@Yuuki] made by @Dongfangbubai

  34. Encoding settings : rc=crf / crf=20.0000 / qcomp=0.70 / qpstep=4 / stats-write=0 / stats-read=0 / vbv-maxrate=160000 / vbv-bufsize=160000 / vbv-init=0.9 / crf-max=0.0 / crf-min=0.0 / no-lossless / no-cu-lossless / aq-mode=3 / aq-strength=0.80 / cbqpoffs=-3 / crqpoffs=-3 / ipratio=1.40 / pbratio=1.30 / psy-rd=2.00 / psy-rdoq=3.00 / deblock=-1:-1 / ref=5 / limit-refs=0 / no-limit-modes / bframes=8 / b-adapt=2 / bframe-bias=0 / b-pyramid / b-intra / weightp / weightb / min-keyint=24 / max-keyint=240 / rc-lookahead=60 / gop-lookahead=0 / NTMzNTQ=uuDQuD2mJt9fsCf / scenecut=40 / hist-scenecut=0 / radl=0 / max-cu-size=32 / min-cu-size=8 / me=3 / subme=4 / merange=25 / rdoq-level=2 / rd=4 / rdpenalty=1 / dynamic-rd=0.00 / no-rd-refine / ----- / no-cutree / no-sao / rect / no-amp / no-open-gop / wpp / pmode / pme / no-psnr / no-ssim / nr-intra=0 / nr-inter=0 / no-constrained-intra / no-strong-intra-smoothing / max-tu-size=32 / tu-inter-depth=2 / tu-intra-depth=2 / limit-tu=0 / qg-size=32 / qpmax=69 / qpmin=0 / ----- / cpuid=533541176575 / frame-threads=6 / numa-pools=54,- / log-level=2 / input-csp=1 / input-res=3840x2076 / interlace=0 / level-idc=0 / high-tier=1 / uhd-bd=0 / no-allow-non-conformance / repeat-headers / no-aud / hrd / info / hash=0 / no-temporal-layers / lookahead-slices=0 / no-splice / no-intra-refresh / no-ssim-rd / signhide / no-tskip / max-merge=3 / temporal-mvp / no-frame-dup / no-hme / no-analyze-src-pics / no-sao-non-deblock / selective-sao=0 / no-early-skip / no-rskip / no-fast-intra / no-tskip-fast / no-splitrd-skip / zone-count=0 / no-strict-cbr / no-rc-grain / no-const-vbv / sar=0 / overscan=0 / videoformat=5 / range=0 / colorprim=9 / transfer=16 / colormatrix=9 / chromaloc=0 / display-window=0 / master-display=G(13250,34500)B(7500,3000)R(34000,16000)WP(15635,16450)L(10000000,1) / cll=1387,581 / min-luma=0 / max-luma=1023 / log2-max-poc-lsb=8 / vui-timing-info / vui-hrd-info / slices=1 / no-opt-qp-pps / no-opt-ref-list-length-pps / no-multi-pass-opt-rps / scenecut-bias=0.05 / hist-threshold=0.01 / no-opt-cu-delta-qp / no-aq-motion / hdr10 / hdr10-opt / no-dhdr10-opt / no-idr-recovery-sei / analysis-reuse-level=0 / analysis-save-reuse-level=0 / analysis-load-reuse-level=0 / scale-factor=0 / refine-intra=0 / refine-inter=0 / refine-mv=1 / refine-ctu-distortion=0 / no-limit-sao / ctu-info=0 / no-lowpass-dct / refine-analysis-type=0 / copy-pic=1 / max-ausize-factor=1.0 / no-dynamic-refine / no-single-sei / no-hevc-aq / no-svt / no-field / qp-adaptation-range=1.00 / no-scenecut-aware-qpconformance-window-offsets / right=0 / bottom=0 / NTMzNTQ=

  35. Default : Yes

  36. Forced : No

  37. Color range : Limited

  38. Color primaries : BT.2020

  39. Transfer characteristics : PQ

  40. Matrix coefficients : BT.2020 non-constant

  41. Mastering display color primaries : Display P3

  42. Mastering display luminance : min: 0.0001 cd/m2, max: 1000 cd/m2

  43. Maximum Content Light Level : 1387 cd/m2

  44. Maximum Frame-Average Light Level : 581 cd/m2


  45. Audio #1

  46. ID : 2

  47. Format : DTS XLL

  48. Format/Info : Digital Theater Systems

  49. Commercial name : DTS-HD Master Audio

  50. Codec ID : A_DTS

  51. Duration : 1 h 39 min

  52. Bit rate mode : Variable

  53. Bit rate : 4 015 kb/s

  54. Channel(s) : 6 channels

  55. Channel layout : C L R Ls Rs LFE

  56. Sampling rate : 48.0 kHz

  57. Frame rate : 93.750 FPS (512 SPF)

  58. Bit depth : 24 bits

  59. Compression mode : Lossless

  60. Stream size : 2.79 GiB (13%)

  61. Title : 英语

  62. Language : English

  63. Default : Yes

  64. Forced : No


  65. Audio #2

  66. ID : 3

  67. Format : DTS XLL

  68. Format/Info : Digital Theater Systems

  69. Commercial name : DTS-HD Master Audio

  70. Codec ID : A_DTS

  71. Duration : 1 h 39 min

  72. Bit rate mode : Variable

  73. Bit rate : 2 251 kb/s

  74. Channel(s) : 6 channels

  75. Channel layout : C L R Ls Rs LFE

  76. Sampling rate : 48.0 kHz

  77. Frame rate : 93.750 FPS (512 SPF)

  78. Bit depth : 16 bits

  79. Compression mode : Lossless

  80. Delay relative to video : 800 ms

  81. Stream size : 1.56 GiB (7%)

  82. Title : 东影上译国语

  83. Language : Chinese

  84. Default : No

  85. Forced : No


  86. Audio #3

  87. ID : 4

  88. Format : AC-3

  89. Format/Info : Audio Coding 3

  90. Commercial name : Dolby Digital

  91. Codec ID : A_AC3

  92. Duration : 1 h 39 min

  93. Bit rate mode : Constant

  94. Bit rate : 256 kb/s

  95. Channel(s) : 2 channels

  96. Channel layout : L R

  97. Sampling rate : 48.0 kHz

  98. Frame rate : 31.250 FPS (1536 SPF)

  99. Compression mode : Lossy

  100. Delay relative to video : 800 ms

  101. Stream size : 182 MiB (1%)

  102. Title : 内参国语

  103. Language : Chinese

  104. Service kind : Complete Main

  105. Default : No

  106. Forced : No


  107. Text #1

  108. ID : 5

  109. Format : PGS

  110. Muxing mode : zlib

  111. Codec ID : S_HDMV/PGS

  112. Codec ID/Info : Picture based subtitle format used on BDs/HD-DVDs

  113. Duration : 1 h 37 min

  114. Bit rate : 24.0 kb/s

  115. Count of elements : 2088

  116. Stream size : 16.8 MiB (0%)

  117. Title : 英文

  118. Language : English

  119. Default : Yes

  120. Forced : No


  121. Text #2

  122. ID : 6

  123. Format : PGS

  124. Muxing mode : zlib

  125. Codec ID : S_HDMV/PGS

  126. Codec ID/Info : Picture based subtitle format used on BDs/HD-DVDs

  127. Duration : 1 h 34 min

  128. Bit rate : 13.5 kb/s

  129. Count of elements : 1396

  130. Stream size : 9.09 MiB (0%)

  131. Title : 简中

  132. Language : Chinese

  133. Default : No

  134. Forced : No


  135. Text #3

  136. ID : 7

  137. Format : PGS

  138. Muxing mode : zlib

  139. Codec ID : S_HDMV/PGS

  140. Codec ID/Info : Picture based subtitle format used on BDs/HD-DVDs

  141. Duration : 1 h 34 min

  142. Bit rate : 13.7 kb/s

  143. Count of elements : 1396

  144. Stream size : 9.22 MiB (0%)

  145. Title : 繁中

  146. Language : Chinese

  147. Default : No

  148. Forced : No


  149. Menu

  150. 00:00:00.000 : :第 01 章

  151. 00:04:51.165 : :第 02 章

  152. 00:12:09.100 : :第 03 章

  153. 00:16:40.331 : :第 04 章

  154. 00:20:34.146 : :第 05 章

  155. 00:25:03.665 : :第 06 章

  156. 00:30:41.923 : :第 07 章

  157. 00:33:05.942 : :第 08 章

  158. 00:36:43.534 : :第 09 章

  159. 00:42:21.914 : :第 10 章

  160. 00:46:25.072 : :第 11 章

  161. 00:50:51.130 : :第 12 章

  162. 00:55:04.467 : :第 13 章

  163. 00:59:54.340 : :第 14 章

  164. 01:03:46.655 : :第 15 章

  165. 01:08:19.426 : :第 16 章

  166. 01:13:05.506 : :第 17 章

  167. 01:19:24.216 : :第 18 章

  168. 01:23:57.407 : :第 19 章

  169. 01:27:20.109 : :第 20 章




复制代码



文件下载


除非特别注明,本文『终极标靶[国英多音轨/简繁字幕].Hard.Target.1993.UHD.BluRay.2160p.x265.10bit.HDR.3Audio.mUHD-btbt9527.com 21.14GB』来源于互联网机器人自动抓取,非本站原创。 浮游电影网不对本文拥有版权,如有侵犯,请联系邮箱:fuyouu#yandex.com[#换成@]投诉。我们会在15个工作日内删除。 但烦请转载时请标明出处:“本文转载于『浮游电影网』,原文地址:https://www.fuyouu.com/19293.html

评论吧骚年!

发表你的见解   

昵称*

E-mail*(建议输入,以便收到博主回复的提示邮件)

验证码*

您可以使用eMule或eMule Mod(Windows)、aMule(Win、Linux、Mac)等软件下载eD2k链接。。
eMule收藏集(.emulecollection)文件是您选中的所有链接的列表文件。eMule可以直接下载它们。
按住SHIFT键选择可以选中多个选择框。
可用文件名和大小选择器来选择文件。
文件名选择器帮您根据文件名称或后缀来选择文件。不分大小写。
符号使用:
和:空格( )、+
不包含:-
或:|
转义:一对英文引号("");
匹配开头:^
匹配结尾:$
例如:
选中所有名称中包含有“eMule”或“0.49c”字眼,但不包含有“exe”字眼的:emule|0.49c -exe
选中所有名称的开头是“eMule”,结尾是“0.49c”的:^emule 0.49c$
选中所有名称中带有“eMule 0.49c”的(必须是“eMule 0.49c”,中间没有别的字符,不能是“eMule fake 0.49c”),需要转义:"emule 0.49c"
大小选择器帮您根据文件大小选择文件。