当前位置: 首页 >> 欧美电影 >> 失控玩家[国英多音轨/中文字幕].Free.Guy.2021.UHD.BluRay.2160p.x265.10bit.HDR.2Audio.mUHD-btbt9527.com 21.71GB >> 正文

失控玩家[国英多音轨/中文字幕].Free.Guy.2021.UHD.BluRay.2160p.x265.10bit.HDR.2Audio.mUHD-btbt9527.com 21.71GB

2021年12月13日 21:32:19     电影发布:来源于网络     电影分类:欧美电影     评论(0)    

失控玩家[国英多音轨/中文字幕].Free.Guy.2021.UHD.BluRay.2160p.x265.10bit.HDR.2Audio.mUHD btbt9527.com 21.71GB 科幻片 喜剧片 动作片 欧美电影  第1张

◎译 名 失控玩家 / 分身人 / 爆机自由仁(港) / 脱稿玩家(台) / 自由之人 / 自由人

◎片 名 Free Guy

◎年 代 2021

◎产 地 美国 / 加拿大

◎类 别 喜剧 / 动作 / 科幻

◎语 言 英语

◎上映日期 2021-08-27(中国大陆) / 2021-08-10(洛迦诺电影节) / 2021-08-13(美国)

◎IMDb链接 https://www.imdb.com/title/tt6264654/

◎豆瓣评分 7.5/10 (487778人评价)

◎豆瓣链接 https://movie.douban.com/subject/30337388/

◎片 长 115分钟

◎导 演 肖恩·利维 Shawn Levy (id:1289935)

◎编 剧 马特·利伯曼 Matt Lieberman (id:1405591)

扎克·佩恩 Zak Penn (id:1294247)

◎演 员 瑞安·雷诺兹 Ryan Reynolds (id:1053623)

朱迪·科默 Jodie Comer (id:1338497)

乔·基瑞 Joe Keery (id:1360284)

里尔·莱尔·哈瓦瑞 Lil Rel Howery (id:1369571)

塔伊加·维迪提 Taika Waititi (id:1076354)

乌特卡什·安邦德卡尔 Utkarsh Ambudkar (id:1237549)

查宁·塔图姆 Channing Tatum (id:1031224)

休·杰克曼 Hugh Jackman (id:1010508)

道恩·强森 Dwayne Johnson (id:1044707)

克里斯·埃文斯 Chris Evans (id:1017885)

约翰·卡拉辛斯基 John Krasinski (id:1027146)

蒂娜·菲 Tina Fey (id:1044730)

卡米尔·科斯塔克 Camille Kostek (id:1455818)

布丽特妮·欧德福特 Britne Oldford (id:1315781)

肯尼斯·以色列 Kenneth Israel (id:1405785)

亚历克斯·崔贝克 Alex Trebek (id:1009563)

劳拉·斯宾塞 Lara Spencer (id:1224338)

马修·卡德罗普 Matthew Cardarople (id:1204213)

迈克尔·陶 Michael Tow (id:1413070)

野村祐人 Eugene Nomura (id:1045742)

Raj Jawa Raj Jawa (id:1024623)

何塞·冈斯·阿尔维斯 Jose Guns Alves (id:1446090)

欧文·伯克 Owen Burke (id:1387221)

加布里埃尔·洛莱斯 Gabrielle Lorthe (id:1413068)

雷吉纳·托芬 Regina Taufen (id:1207022)

珍妮尔·费格利 Janelle Feigley (id:1446088)

泰特·弗莱彻 Tait Fletcher (id:1389967)

香农·哈特曼 Shannon Hartman (id:1379598)

金伯利·豪威 Kimberly Howe (id:1359658)

亚伦·W·里德 Aaron W Reed (id:1460787)

阿纳斯塔西亚·齐卡那瓦 Anastasia Tsikhanava (id:1412302)

大卫·莫威克 David Morwick (id:1304942)

阿德里安·M·蒙波因特 Adrian M. Mompoint (id:1413072)

多梅尼克·阿尔迪诺 Domenic Arduino (id:1411091)

格里格·伯兰蒂 Greg Berlanti (id:1018094)

丹·列文 Dan Levine (id:1369598)

肖恩·利维 Shawn Levy (id:1289935)

乔什·麦克拉伦 Josh McLaglen (id:1032698)

瑞安·雷诺兹 Ryan Reynolds (id:1053623)

克里斯托弗·贝克 Christophe Beck (id:1278180)

乔治·瑞奇蒙 George Richmond (id:1434359)

罗纳·克雷斯 Ronna Kress (id:1055276)

伊桑·托布曼 Ethan Tobman (id:1150097)

比特·弗鲁蒂格 Beat Frutiger (id:1284270)

莱斯利·E·罗林斯 Leslie E. Rollins (id:1295961)

玛琳·斯图尔特 Marlene Stewart (id:1051194)

◎标 签 科幻 / 游戏 / 喜剧 / 搞笑 / 美国 / 奇幻 / 2021 / 冒险

◎简 介

银行出纳员盖(瑞安·雷诺兹 饰)发现自己其实是开放世界电子游戏中的背景角色,于是决定成为英雄,并改写自己的故事。现在,在一个没有限制的世界里,他决心以自己的方式拯救他的世界,以免为时过晚。

  1. ##### MediaInfo ######

  2. General

  3. Unique ID : 21145507712338597591623551783275460714 (0xFE87A05AF5D031718FA5B453A2DF86A)

  4. Complete name : [email protected]MKVHome.mkv

  5. Format : Matroska

  6. Format version : Version 4

  7. File size : 21.7 GiB

  8. Duration : 1 h 54 min

  9. Overall bit rate mode : Variable

  10. Overall bit rate : 27.0 Mb/s

  11. Encoded date : UTC 2021-12-12 12:00:54

  12. Writing application : mkvmerge v62.0.0 ('Apollo') 64-bit

  13. Writing library : libebml v1.4.2 + libmatroska v1.6.4


  14. Video

  15. ID : 1

  16. Format : HEVC

  17. Format/Info : High Efficiency Video Coding

  18. Format profile : Main [email protected]@High

  19. HDR format : SMPTE ST 2086, HDR10 compatible

  20. Codec ID : V_MPEGH/ISO/HEVC

  21. Duration : 1 h 54 min

  22. Bit rate : 13.5 Mb/s

  23. Width : 3 840 pixels

  24. Height : 2 160 pixels

  25. Display aspect ratio : 16:9

  26. Frame rate mode : Constant

  27. Frame rate : 23.976 (24000/1001/53354) FPS

  28. Color space : YUV

  29. Chroma subsampling : 4:2:0

  30. Bit depth : 10 bits

  31. Bits/(Pixel*Frame) : 0.068

  32. Stream size : 10.8 GiB (50%)

  33. Writing library : x265 3.3+3-g8f8e332f1+29:[Windows][#Erg`Djh#][@Yuuki] made by @Dongfangbubai

  34. Encoding settings : rc=crf / crf=18.0000 / qcomp=0.70 / qpstep=4 / stats-write=0 / stats-read=0 / vbv-maxrate=160000 / vbv-bufsize=160000 / vbv-init=0.9 / crf-max=0.0 / crf-min=0.0 / no-lossless / no-cu-lossless / aq-mode=3 / aq-strength=0.80 / cbqpoffs=-3 / crqpoffs=-3 / ipratio=1.40 / pbratio=1.30 / psy-rd=2.00 / psy-rdoq=3.00 / deblock=-1:-1 / ref=5 / limit-refs=0 / no-limit-modes / bframes=8 / b-adapt=2 / bframe-bias=0 / b-pyramid / b-intra / weightp / weightb / min-keyint=23 / max-keyint=240 / rc-lookahead=60 / gop-lookahead=0 / NTMzNTQ=uuDQuD2mJt9fsCf / scenecut=40 / hist-scenecut=0 / radl=0 / max-cu-size=32 / min-cu-size=8 / me=3 / subme=4 / merange=25 / rdoq-level=2 / rd=4 / rdpenalty=1 / dynamic-rd=0.00 / no-rd-refine / ----- / no-cutree / no-sao / rect / no-amp / no-open-gop / wpp / pmode / pme / no-psnr / no-ssim / nr-intra=0 / nr-inter=0 / no-constrained-intra / no-strong-intra-smoothing / max-tu-size=32 / tu-inter-depth=2 / tu-intra-depth=2 / limit-tu=0 / qg-size=32 / qpmax=69 / qpmin=0 / ----- / cpuid=533541176575 / frame-threads=6 / numa-pools=54,- / log-level=2 / input-csp=1 / input-res=3840x2160 / interlace=0 / level-idc=0 / high-tier=1 / uhd-bd=0 / no-allow-non-conformance / repeat-headers / no-aud / hrd / info / hash=0 / no-temporal-layers / lookahead-slices=0 / no-splice / no-intra-refresh / no-ssim-rd / signhide / no-tskip / max-merge=3 / temporal-mvp / no-frame-dup / no-hme / no-analyze-src-pics / no-sao-non-deblock / selective-sao=0 / no-early-skip / no-rskip / no-fast-intra / no-tskip-fast / no-splitrd-skip / zone-count=0 / no-strict-cbr / no-rc-grain / no-const-vbv / sar=0 / overscan=0 / videoformat=5 / range=0 / colorprim=9 / transfer=16 / colormatrix=9 / chromaloc=0 / display-window=0 / master-display=G(13250,34500)B(7500,3000)R(34000,16000)WP(15635,16450)L(10000000,50) / cll=0,0 / min-luma=0 / max-luma=1023 / log2-max-poc-lsb=8 / vui-timing-info / vui-hrd-info / slices=1 / no-opt-qp-pps / no-opt-ref-list-length-pps / no-multi-pass-opt-rps / scenecut-bias=0.05 / hist-threshold=0.01 / no-opt-cu-delta-qp / no-aq-motion / hdr10 / hdr10-opt / no-dhdr10-opt / no-idr-recovery-sei / analysis-reuse-level=0 / analysis-save-reuse-level=0 / analysis-load-reuse-level=0 / scale-factor=0 / refine-intra=0 / refine-inter=0 / refine-mv=1 / refine-ctu-distortion=0 / no-limit-sao / ctu-info=0 / no-lowpass-dct / refine-analysis-type=0 / copy-pic=1 / max-ausize-factor=1.0 / no-dynamic-refine / no-single-sei / no-hevc-aq / no-svt / no-field / qp-adaptation-range=1.00 / no-scenecut-aware-qpconformance-window-offsets / right=0 / bottom=0 / NTMzNTQ=

  35. Default : Yes

  36. Forced : No

  37. Color range : Limited

  38. Color primaries : BT.2020

  39. Transfer characteristics : PQ

  40. Matrix coefficients : BT.2020 non-constant

  41. Mastering display color primaries : Display P3

  42. Mastering display luminance : min: 0.0050 cd/m2, max: 1000 cd/m2


  43. Audio #1

  44. ID : 2

  45. Format : MLP FBA 16-ch

  46. Format/Info : Meridian Lossless Packing FBA with 16-channel presentation

  47. Commercial name : Dolby TrueHD with Dolby Atmos

  48. Codec ID : A_TRUEHD

  49. Duration : 1 h 54 min

  50. Bit rate mode : Variable

  51. Bit rate : 7 912 kb/s

  52. Maximum bit rate : 12.9 Mb/s

  53. Channel(s) : 8 channels

  54. Channel layout : L R C LFE Ls Rs Lb Rb

  55. Sampling rate : 48.0 kHz

  56. Frame rate : 1 200.000 FPS (40 SPF)

  57. Compression mode : Lossless

  58. Stream size : 6.35 GiB (29%)

  59. Title : 英语

  60. Language : English

  61. Default : Yes

  62. Forced : No

  63. Number of dynamic objects : 13

  64. Bed channel count : 1 channel

  65. Bed channel configuration : LFE


  66. Audio #2

  67. ID : 3

  68. Format : DTS XLL

  69. Format/Info : Digital Theater Systems

  70. Commercial name : DTS-HD Master Audio

  71. Codec ID : A_DTS

  72. Duration : 1 h 54 min

  73. Bit rate mode : Variable

  74. Bit rate : 4 935 kb/s

  75. Channel(s) : 8 channels

  76. Channel layout : C L R LFE Lb Rb Lss Rss

  77. Sampling rate : 48.0 kHz

  78. Frame rate : 93.750 FPS (512 SPF)

  79. Bit depth : 24 bits

  80. Compression mode : Lossless

  81. Stream size : 3.96 GiB (18%)

  82. Title : 上译国语

  83. Language : Chinese

  84. Default : No

  85. Forced : No


  86. Text #1

  87. ID : 4

  88. Format : PGS

  89. Muxing mode : zlib

  90. Codec ID : S_HDMV/PGS

  91. Codec ID/Info : Picture based subtitle format used on BDs/HD-DVDs

  92. Duration : 1 h 47 min

  93. Bit rate : 478 kb/s

  94. Count of elements : 23181

  95. Stream size : 368 MiB (2%)

  96. Title : 国配特效

  97. Language : Chinese

  98. Default : Yes

  99. Forced : No


  100. Text #2

  101. ID : 5

  102. Format : PGS

  103. Muxing mode : zlib

  104. Codec ID : S_HDMV/PGS

  105. Codec ID/Info : Picture based subtitle format used on BDs/HD-DVDs

  106. Duration : 1 h 47 min

  107. Bit rate : 622 kb/s

  108. Count of elements : 23739

  109. Stream size : 478 MiB (2%)

  110. Title : 双语特效

  111. Language : Chinese

  112. Default : No

  113. Forced : No


  114. Menu

  115. 00:00:00.000 : en:00:00:00.000

  116. 00:03:48.854 : en:00:03:48.854

  117. 00:11:07.292 : en:00:11:07.292

  118. 00:27:59.303 : en:00:27:59.303

  119. 00:44:19.615 : en:00:44:19.615

  120. 00:55:08.680 : en:00:55:08.680

  121. 01:01:37.611 : en:01:01:37.611

  122. 01:16:40.054 : en:01:16:40.054

  123. 01:33:44.828 : en:01:33:44.828




复制代码



文件下载


除非特别注明,本文『失控玩家[国英多音轨/中文字幕].Free.Guy.2021.UHD.BluRay.2160p.x265.10bit.HDR.2Audio.mUHD-btbt9527.com 21.71GB』来源于互联网机器人自动抓取,非本站原创。 浮游电影网不对本文拥有版权,如有侵犯,请联系邮箱:fuyouu#yandex.com[#换成@]投诉。我们会在15个工作日内删除。 但烦请转载时请标明出处:“本文转载于『浮游电影网』,原文地址:https://www.fuyouu.com/19292.html

评论吧骚年!

发表你的见解   

昵称*

E-mail*(建议输入,以便收到博主回复的提示邮件)

验证码*

您可以使用eMule或eMule Mod(Windows)、aMule(Win、Linux、Mac)等软件下载eD2k链接。。
eMule收藏集(.emulecollection)文件是您选中的所有链接的列表文件。eMule可以直接下载它们。
按住SHIFT键选择可以选中多个选择框。
可用文件名和大小选择器来选择文件。
文件名选择器帮您根据文件名称或后缀来选择文件。不分大小写。
符号使用:
和:空格( )、+
不包含:-
或:|
转义:一对英文引号("");
匹配开头:^
匹配结尾:$
例如:
选中所有名称中包含有“eMule”或“0.49c”字眼,但不包含有“exe”字眼的:emule|0.49c -exe
选中所有名称的开头是“eMule”,结尾是“0.49c”的:^emule 0.49c$
选中所有名称中带有“eMule 0.49c”的(必须是“eMule 0.49c”,中间没有别的字符,不能是“eMule fake 0.49c”),需要转义:"emule 0.49c"
大小选择器帮您根据文件大小选择文件。