当前位置: 首页 >> 欧美电影 >> 摇摆乐时代[中文字幕].Swing.Time.1936.CC.Bluray.1080p.x265.10bit.FLAC.MNHD-btbt9527.com 8.87GB >> 正文

摇摆乐时代[中文字幕].Swing.Time.1936.CC.Bluray.1080p.x265.10bit.FLAC.MNHD-btbt9527.com 8.87GB

2021年12月13日 21:30:00     电影发布:来源于网络     电影分类:欧美电影     评论(0)    

摇摆乐时代[中文字幕].Swing.Time.1936.CC.Bluray.1080p.x265.10bit.FLAC.MNHD btbt9527.com 8.87GB 歌舞 爱情片 喜剧片 欧美电影  第1张

◎译 名 摇摆乐时代 / 欢乐时光 / 摇曳时光 / 风月无边

◎片 名 Swing Time

◎年 代 1936

◎产 地 美国

◎类 别 喜剧 / 爱情 / 歌舞

◎语 言 英语

◎上映日期 1936-08-27

◎IMDb链接 https://www.imdb.com/title/tt0028333/

◎豆瓣评分 7.7/10 (1047人评价)

◎豆瓣链接 https://movie.douban.com/subject/1306624/

◎片 长 103 分钟

◎导 演 乔治·史蒂文斯 George Stevens (id:1156968)

◎编 剧 霍华德·林赛 Howard Lindsay (id:1001162)

艾伦·斯科特 Allan Scott (id:1142035)

多萝西·约斯特 Dorothy Yost (id:1048996)

Ben Holmes Ben Holmes (id:1043069)

里安·詹姆斯 Rian James (id:1029742)

欧文·S·格尔西 Erwin S. Gelsey (id:1016079)

安东尼·维勒 Anthony Veiller (id:1010234)

◎演 员 弗雷德·阿斯泰尔 Fred Astaire (id:1048163)

金杰·罗杰斯 Ginger Rogers (id:1010663)

维克托·摩尔 Victor Moore (id:1132771)

海伦·布罗德里克 Helen Broderick (id:1071346)

Donald Kerr Donald Kerr (id:1111908)

Georges Metaxa Georges Metaxa (id:1116190)

Sam Lufkin Sam Lufkin (id:1119345)

弗兰克·詹克斯 Frank Jenks (id:1108635)

Jack Good Jack Good (id:1101487)

玛丽?奥斯本 Marie Osborne (id:1132480)

Jack Rice Jack Rice (id:1138210)

费迪南·穆尼埃 Ferdinand Munier (id:1131759)

皮埃尔·沃特金斯 Pierre Watkin (id:1163105)

Dale Van Sickel Dale Van Sickel (id:1159439)

Sailor Vincent Sailor Vincent (id:1157216)

Landers Stevens Landers Stevens (id:1154055)

Floyd Shackelford Floyd Shackelford (id:1147243)

Abe Reynolds Abe Reynolds (id:1145810)

John Shelton John Shelton (id:1143397)

Joey Ray Joey Ray (id:1138858)

John Harrington John Harrington (id:1100462)

Gerald Hamer Gerald Hamer (id:1098491)

查理·霍尔 Charlie Hall (id:1095599)

托马斯·柯伦 Thomas A. Curran (id:1068567)

埃里克·布洛尔 Eric Blore (id:1066593)

Harry Bernard Harry Bernard (id:1065082)

弗兰克·米尔斯 Frank Mills (id:1054473)

霍华德·C·希克曼 Howard C. Hickman (id:1054226)

Frank Hammond Frank Hammond (id:1043444)

Martin Cichy Martin Cichy (id:1043014)

Ralph Byrd Ralph Byrd (id:1069397)

Edgar Dearing Edgar Dearing (id:1089921)

贝蒂·弗内斯 Betty Furness (id:1084981)

贝丝·弗劳尔斯 Bess Flowers (id:1084601)

Fern Emmett Fern Emmett (id:1084400)

Olin Francis Olin Francis (id:1079218)

Harry Bowen Harry Bowen (id:1078286)

Bill Brande Bill Brande (id:1075582)

Ralph Brooks Ralph Brooks (id:1073888)

艾兰·柯蒂斯 Alan Curtis (id:1073300)

丹尼斯·欧基夫 Dennis O'Keefe (id:1002897)

潘德洛·S·伯曼 Pandro S. Berman (id:1003589)

杰罗姆·克恩 Jerome Kern (id:1005448)

罗伯特·拉塞尔·贝内特 Robert Russell Bennett (id:1020425)

David Abel David Abel (id:1038823)

亨利·伯曼 Henry Berman (id:1015267)

范·内斯特·波格拉斯 Van Nest Polglase (id:1049533)

Bernard Newman Bernard Newman (id:1043092)

Mel Berns Mel Berns (id:1066649)

Louis Hippe Louis Hippe (id:1091006)

Sydney M. Fogel Sydney M. Fogel (id:1084772)

Argyle Nelson Argyle Nelson (id:1127467)

◎标 签 美国 / 歌舞 / 歌舞片 / 1936 / 1930s / 喜剧 / FredAstaire / 美国电影

◎简 介

约翰(弗雷德·阿斯泰尔 Fred Astaire 饰)是一名极富才华的舞蹈家,歌手卡德(维克托·摩尔 Victor Moore 饰)是约翰最好的朋友兼搭档,两人之间的友谊十分深厚。约翰一心想要迎娶自己的青梅竹马玛格丽特(Betty Furness 饰),但卡德却并不看好这桩婚事。为了搅黄约翰的婚礼,卡德找到了各种借口拖延时间,导致约翰最终错过了结婚典礼。愤怒玛格丽特和父亲要求约翰拿来两万五千美元,方可得到他们的原谅,无奈之下约翰只得踏上了筹钱的旅途。

约翰和卡德来到了纽约,在一场意外中邂逅了名为佩妮(金格尔·罗杰斯 Ginger Rogers 饰)的女子。一番波折之后,约翰发现佩妮是一名舞蹈教练,不仅如此,两人的节奏亦十分合拍,于是决定组成搭档。

◎获奖情况 (共2项)

第9届奥斯卡金像奖 (1937)

最佳原创歌曲

最佳舞蹈指导(提名)

└──赫米斯·潘 (id:1134070)

  1. ##### MediaInfo ######

  2. General

  3. Unique ID : 138560373935170789460309855273996055180 (0x683DC1E02A0724B45A9BB0724F20F28C)

  4. Complete name : [email protected]me.mkv

  5. Format : Matroska

  6. Format version : Version 4

  7. File size : 8.87 GiB

  8. Duration : 1 h 43 min

  9. Overall bit rate mode : Variable

  10. Overall bit rate : 12.2 Mb/s

  11. Movie name : Swing Time 1936 CC Bluray 1080p - FRDS

  12. Encoded date : UTC 2021-12-12 15:12:56

  13. Writing application : mkvmerge v63.0.0 ('Everything') 64-bit

  14. Writing library : libebml v1.4.2 + libmatroska v1.6.4


  15. Video

  16. ID : 1

  17. Format : HEVC

  18. Format/Info : High Efficiency Video Coding

  19. Format profile : Main [email protected]@High

  20. Codec ID : V_MPEGH/ISO/HEVC

  21. Duration : 1 h 43 min

  22. Bit rate : 11.6 Mb/s

  23. Width : 1 480 pixels

  24. Height : 1 080 pixels

  25. Display aspect ratio : 1.370

  26. Frame rate mode : Constant

  27. Frame rate : 23.976 (24000/1001/53354) FPS

  28. Color space : YUV

  29. Chroma subsampling : 4:2:0

  30. Bit depth : 10 bits

  31. Bits/(Pixel*Frame) : 0.301

  32. Stream size : 8.37 GiB (94%)

  33. Writing library : x265 3.5+20-17839cc0d:[Windows][MSVC 1930][64 bit] 10bit

  34. Encoding settings : cpuid=533541111039 / frame-threads=4 / numa-pools=16 / wpp / pmode / no-pme / no-psnr / no-ssim / log-level=2 / input-csp=1 / input-res=1480x1080 / interlace=0 / total-frames=149277 / level-idc=0 / high-tier=1 / uhd-bd=0 / ref=6 / no-allow-non-conformance / no-repeat-headers / annexb / no-aud / no-eob / no-eos / no-hrd / info / hash=0 / no-temporal-layers / no-open-gop / min-keyint=1 / keyint=250 / gop-lookahead=0 / bframes=8 / b-adapt=2 / b-pyramid / bframe-bias=0 / rc-lookahead=100 / lookahead-slices=0 / NTMzNTQ=uuDQuD2mJt9fsCf / scenecut=40 / no-hist-scenecut / radl=0 / no-splice / no-intra-refresh / ctu=32 / min-cu-size=8 / no-rect / no-amp / max-tu-size=32 / tu-inter-depth=4 / tu-intra-depth=4 / limit-tu=0 / rdoq-level=2 / dynamic-rd=0.00 / no-ssim-rd / signhide / tskip / nr-intra=0 / nr-inter=0 / no-constrained-intra / strong-intra-smoothing / max-merge=5 / limit-refs=0 / no-limit-modes / me=3 / subme=7 / merange=57 / temporal-mvp / no-frame-dup / no-hme / weightp / weightb / no-analyze-src-pics / deblock=-3:-3 / no-sao / no-sao-non-deblock / rd=4 / selective-sao=0 / no-early-skip / no-rskip / no-fast-intra / no-tskip-fast / no-cu-lossless / b-intra / no-splitrd-skip / rdpenalty=0 / psy-rd=1.50 / psy-rdoq=1.00 / no-rd-refine / no-lossless / cbqpoffs=-2 / crqpoffs=-2 / rc=crf / crf=21.0 / qcomp=0.65 / qpstep=4 / stats-write=0 / stats-read=0 / vbv-maxrate=160000 / vbv-bufsize=160000 / vbv-init=0.9 / min-vbv-fullness=50.0 / max-vbv-fullness=80.0 / crf-max=0.0 / crf-min=0.0 / ipratio=1.30 / pbratio=1.20 / aq-mode=1 / aq-strength=1.00 / cutree / zone-count=0 / no-strict-cbr / qg-size=8 / no-rc-grain / qpmax=69 / qpmin=0 / no-const-vbv / sar=0 / overscan=0 / videoformat=5 / range=0 / colorprim=1 / transfer=1 / colormatrix=1 / chromaloc=0 / display-window=0 / cll=0,0 / min-luma=0 / max-luma=1023 / log2-max-poc-lsb=8 / vui-timing-info / vui-hrd-info / slices=1 / no-opt-qp-pps / no-opt-ref-list-length-pps / no-multi-pass-opt-rps / scenecut-bias=0.05 / hist-threshold=0.03 / no-opt-cu-delta-qp / no-aq-motion / no-hdr10 / no-hdr10-opt / no-dhdr10-opt / no-idr-recovery-sei / analysis-reuse-level=0 / analysis-save-reuse-level=0 / analysis-load-reuse-level=0 / scale-factor=0 / refine-intra=0 / refine-inter=0 / refine-mv=1 / refine-ctu-distortion=0 / no-limit-sao / ctu-info=0 / no-lowpass-dct / refine-analysis-type=0 / copy-pic=1 / max-ausize-factor=1.0 / no-dynamic-refine / no-single-sei / no-hevc-aq / no-svt / no-field / qp-adaptation-range=1.00 / scenecut-aware-qp=0conformance-window-offsets / right=0 / bottom=0 / NTMzNTQ= / decoder-max-rate=0 / no-vbv-live-multi-pass

  35. Default : Yes

  36. Forced : No

  37. Color range : Limited

  38. Color primaries : BT.709

  39. Transfer characteristics : BT.709

  40. Matrix coefficients : BT.709


  41. Audio #1

  42. ID : 2

  43. Format : FLAC

  44. Format/Info : Free Lossless Audio Codec

  45. Codec ID : A_FLAC

  46. Duration : 1 h 43 min

  47. Bit rate mode : Variable

  48. Bit rate : 568 kb/s

  49. Channel(s) : 1 channel

  50. Channel layout : C

  51. Sampling rate : 48.0 kHz

  52. Frame rate : 11.719 FPS (4096 SPF)

  53. Bit depth : 24 bits

  54. Compression mode : Lossless

  55. Stream size : 421 MiB (5%)

  56. Writing library : libFLAC 1.2.1 (UTC 2007-09-17)

  57. Language : English

  58. Default : Yes

  59. Forced : No


  60. Audio #2

  61. ID : 3

  62. Format : Opus

  63. Codec ID : A_OPUS

  64. Duration : 1 h 43 min

  65. Bit rate : 66.9 kb/s

  66. Channel(s) : 1 channel

  67. Channel layout : C

  68. Sampling rate : 48.0 kHz

  69. Frame rate : 50.000 FPS (960 SPF)

  70. Compression mode : Lossy

  71. Stream size : 49.7 MiB (1%)

  72. Title : commentary from 1986 featuring John Mueller, author of Astaire Dancing: The Musical Films

  73. Writing library : opusenc from opus-tools 0.2-3-gf5f571b

  74. Language : English

  75. Default : Yes

  76. Forced : No

  77. ENCODER_OPTIONS : --bitrate 65


  78. Text #1

  79. ID : 4

  80. ID in the original source medium : 4608 (0x1200)

  81. Format : PGS

  82. Muxing mode : zlib

  83. Codec ID : S_HDMV/PGS

  84. Codec ID/Info : Picture based subtitle format used on BDs/HD-DVDs

  85. Duration : 1 h 43 min

  86. Bit rate : 50.1 kb/s

  87. Count of elements : 2762

  88. Stream size : 37.0 MiB (0%)

  89. Language : English

  90. Default : No

  91. Forced : No

  92. Original source medium : Blu-ray


  93. Text #2

  94. ID : 5

  95. ID in the original source medium : 4609 (0x1201)

  96. Format : PGS

  97. Muxing mode : zlib

  98. Codec ID : S_HDMV/PGS

  99. Codec ID/Info : Picture based subtitle format used on BDs/HD-DVDs

  100. Duration : 1 h 41 min

  101. Bit rate : 24.5 kb/s

  102. Count of elements : 2152

  103. Stream size : 17.8 MiB (0%)

  104. Title : CHS

  105. Language : Chinese

  106. Default : Yes

  107. Forced : No

  108. Original source medium : Blu-ray


  109. Text #3

  110. ID : 6

  111. ID in the original source medium : 4610 (0x1202)

  112. Format : PGS

  113. Muxing mode : zlib

  114. Codec ID : S_HDMV/PGS

  115. Codec ID/Info : Picture based subtitle format used on BDs/HD-DVDs

  116. Duration : 1 h 41 min

  117. Bit rate : 25.3 kb/s

  118. Count of elements : 2152

  119. Stream size : 18.4 MiB (0%)

  120. Title : CHT

  121. Language : Chinese

  122. Default : Yes

  123. Forced : No

  124. Original source medium : Blu-ray


  125. Menu

  126. 00:00:00.000 : en:Chapter 01

  127. 00:09:11.300 : en:Chapter 02

  128. 00:14:29.410 : en:Chapter 03

  129. 00:21:50.642 : en:Chapter 04

  130. 00:31:58.917 : en:Chapter 05

  131. 00:37:01.594 : en:Chapter 06

  132. 00:42:15.824 : en:Chapter 07

  133. 00:50:16.930 : en:Chapter 08

  134. 00:54:29.266 : en:Chapter 09

  135. 00:57:38.455 : en:Chapter 10

  136. 01:07:27.043 : en:Chapter 11

  137. 01:13:02.836 : en:Chapter 12

  138. 01:21:19.249 : en:Chapter 13

  139. 01:25:59.154 : en:Chapter 14

  140. 01:34:24.659 : en:Chapter 15




复制代码



文件下载


除非特别注明,本文『摇摆乐时代[中文字幕].Swing.Time.1936.CC.Bluray.1080p.x265.10bit.FLAC.MNHD-btbt9527.com 8.87GB』来源于互联网机器人自动抓取,非本站原创。 浮游电影网不对本文拥有版权,如有侵犯,请联系邮箱:fuyouu#yandex.com[#换成@]投诉。我们会在15个工作日内删除。 但烦请转载时请标明出处:“本文转载于『浮游电影网』,原文地址:https://www.fuyouu.com/19291.html

评论吧骚年!

发表你的见解   

昵称*

E-mail*(建议输入,以便收到博主回复的提示邮件)

验证码*

您可以使用eMule或eMule Mod(Windows)、aMule(Win、Linux、Mac)等软件下载eD2k链接。。
eMule收藏集(.emulecollection)文件是您选中的所有链接的列表文件。eMule可以直接下载它们。
按住SHIFT键选择可以选中多个选择框。
可用文件名和大小选择器来选择文件。
文件名选择器帮您根据文件名称或后缀来选择文件。不分大小写。
符号使用:
和:空格( )、+
不包含:-
或:|
转义:一对英文引号("");
匹配开头:^
匹配结尾:$
例如:
选中所有名称中包含有“eMule”或“0.49c”字眼,但不包含有“exe”字眼的:emule|0.49c -exe
选中所有名称的开头是“eMule”,结尾是“0.49c”的:^emule 0.49c$
选中所有名称中带有“eMule 0.49c”的(必须是“eMule 0.49c”,中间没有别的字符,不能是“eMule fake 0.49c”),需要转义:"emule 0.49c"
大小选择器帮您根据文件大小选择文件。