当前位置: 首页 >> 日韩电影 >> 娜娜[简繁字幕].Nana.2005.BluRay.1080p.DTS-HD.MA5.1.x265.10bit-btbt9527.com 7.28GB >> 正文

娜娜[简繁字幕].Nana.2005.BluRay.1080p.DTS-HD.MA5.1.x265.10bit-btbt9527.com 7.28GB

2021年12月13日 20:23:34     电影发布:来源于网络     电影分类:日韩电影     评论(0)    

娜娜[简繁字幕].Nana.2005.BluRay.1080p.DTS HD.MA5.1.x265.10bit btbt9527.com 7.28GB 音乐片 剧情片 日韩电影  第1张

◎译 名 娜娜 / 世上的另一个我 / NANA / NANA:世上的另一个我(港)

◎片 名 Nana

◎年 代 2005

◎产 地 日本

◎类 别 剧情 / 音乐

◎语 言 日语 / 英语

◎上映日期 2005-09-03(日本)

◎IMDb链接 https://www.imdb.com/title/tt0471834/

◎豆瓣评分 7.8/10 (119895人评价)

◎豆瓣链接 https://movie.douban.com/subject/1421823/

◎片 长 113 分钟

◎导 演 大谷健太郎 Kentar? ?tani (id:1301824)

◎编 剧 矢泽爱 Ai Yazawa (id:1033567)

浅野妙子 Taeko Asano (id:1315425)

大谷健太郎 Kentar? ?tani (id:1301824)

◎演 员 中岛美嘉 Mika Nakashima (id:1047987)

宫崎葵 Aoi Miyazaki (id:1037138)

成宫宽贵 Hiroki Narimiya (id:1050492)

松山研一 Ken'ichi Matsuyama (id:1008067)

纱荣子 Saeko (id:1042776)

松田龙平 Ry?hei Matsuda (id:1045454)

平冈祐太 Y?ta Hiraoka (id:1051144)

玉山铁二 Tetsuji Tamayama (id:1000810)

柳原晴郎 Bengaru (id:1065424)

丸山智己 Tomomi Maruyama (id:1002344)

虎牙光挥 Mitsuki Koga (id:1394263)

平泽里菜子 Rinako Hirasawa (id:1313902)

绫野刚 G? Ayano (id:1314909)

滨名一哉 Kazuya Hamana (id:1443606)

鈴木一博 Kazuhiro Suzuki (id:1298690)

◎标 签 日本 / nana / 中岛美嘉 / 日本电影 / 青春 / 漫画改编 / 宫崎葵 / 爱情

◎简 介

另一个译名是:世上的另一个我。小松奈奈(宫崎葵饰)要去见男朋友,在通往东京的火车上,她遇到了另一个Nana——大崎娜娜(中岛美嘉饰),娜娜希望去东京重组Black Stone乐队。两个nana一见如故,到达了东京有两人再次相遇,并且一同搬进了出租屋707。两人虽然有着同样的名字,却有着迥异的性格,在二人同居的生活期间,她们都受到了感情的创伤,她们在扶持中更加了解彼此,感情也越来越深,一路鼓励对方寻找自己的理想。

◎获奖情况 (共3项)

第29届日本电影学院奖 (2006)

话题奖 最具话题影片奖

最佳女主角(提名)

└──中岛美嘉 (id:1047987)

最佳新人

└──中岛美嘉 (id:1047987)

  1. ##### MediaInfo ######

  2. General

  3. Unique ID : 84719718453282890247115155910648341844 (0x3FBC6C9CA042955EAA2259CEA7B72554)

  4. Complete name : [email protected]

  5. Format : Matroska

  6. Format version : Version 4

  7. File size : 7.28 GiB

  8. Duration : 1 h 54 min

  9. Overall bit rate mode : Variable

  10. Overall bit rate : 9 061 kb/s

  11. Encoded date : UTC 2021-12-12 15:06:15

  12. Writing application : mkvmerge v49.0.0 ('Sick Of Losing Soulmates') 64-bit

  13. Writing library : libebml v1.4.0 + libmatroska v1.6.1


  14. Video

  15. ID : 1

  16. Format : HEVC

  17. Format/Info : High Efficiency Video Coding

  18. Format profile : Main [email protected]@High

  19. Codec ID : V_MPEGH/ISO/HEVC

  20. Duration : 1 h 54 min

  21. Bit rate : 7 647 kb/s

  22. Width : 1 920 pixels

  23. Height : 1 034 pixels

  24. Display aspect ratio : 1.85:1

  25. Frame rate mode : Constant

  26. Frame rate : 29.970 (30000/1001/53354) FPS

  27. Color space : YUV

  28. Chroma subsampling : 4:2:0

  29. Bit depth : 10 bits

  30. Bits/(Pixel*Frame) : 0.129

  31. Stream size : 6.14 GiB (84%)

  32. Title : HEVC, [email protected]@High, 24/1.001 fps @ 7647 kbps

  33. Writing library : x265 3.4+14-gd419c7152:[Windows][GCC 10.2.0][64 bit] 10bit

  34. Encoding settings : cpuid=533541111039 / frame-threads=4 / numa-pools=16 / wpp / pmode / pme / no-psnr / no-ssim / log-level=2 / input-csp=1 / input-res=1920x1034 / interlace=0 / total-frames=206777 / level-idc=51 / high-tier=1 / uhd-bd=0 / ref=5 / no-allow-non-conformance / no-repeat-headers / annexb / no-aud / no-hrd / info / hash=0 / no-temporal-layers / open-gop / min-keyint=24 / keyint=240 / gop-lookahead=0 / bframes=6 / b-adapt=2 / b-pyramid / bframe-bias=0 / rc-lookahead=40 / lookahead-slices=0 / NTMzNTQ=uuDQuD2mJt9fsCf / scenecut=40 / hist-scenecut=0 / radl=0 / no-splice / no-intra-refresh / ctu=32 / min-cu-size=8 / no-rect / no-amp / max-tu-size=32 / tu-inter-depth=3 / tu-intra-depth=3 / limit-tu=4 / rdoq-level=2 / dynamic-rd=0.00 / no-ssim-rd / signhide / no-tskip / nr-intra=0 / nr-inter=0 / no-constrained-intra / no-strong-intra-smoothing / max-merge=4 / limit-refs=1 / limit-modes / me=3 / subme=4 / merange=25 / temporal-mvp / no-frame-dup / no-hme / weightp / weightb / no-analyze-src-pics / deblock=-3:-3 / no-sao / no-sao-non-deblock / rd=6 / selective-sao=0 / no-early-skip / rskip / no-fast-intra / no-tskip-fast / no-cu-lossless / b-intra / no-splitrd-skip / rdpenalty=0 / psy-rd=2.00 / psy-rdoq=1.00 / no-rd-refine / no-lossless / cbqpoffs=0 / crqpoffs=0 / rc=crf / crf=18.5 / qcomp=0.65 / qpstep=4 / stats-write=0 / stats-read=0 / vbv-maxrate=80000 / vbv-bufsize=80000 / vbv-init=0.9 / crf-max=0.0 / crf-min=0.0 / ipratio=1.40 / pbratio=1.30 / aq-mode=2 / aq-strength=0.85 / cutree / zone-count=0 / no-strict-cbr / qg-size=32 / no-rc-grain / qpmax=69 / qpmin=0 / no-const-vbv / sar=1 / overscan=0 / videoformat=5 / range=0 / colorprim=1 / transfer=1 / colormatrix=1 / chromaloc=0 / display-window=0 / cll=0,0 / min-luma=0 / max-luma=1023 / log2-max-poc-lsb=8 / vui-timing-info / vui-hrd-info / slices=1 / no-opt-qp-pps / no-opt-ref-list-length-pps / no-multi-pass-opt-rps / scenecut-bias=0.05 / hist-threshold=0.03 / no-opt-cu-delta-qp / no-aq-motion / no-hdr10 / no-hdr10-opt / no-dhdr10-opt / no-idr-recovery-sei / analysis-reuse-level=0 / analysis-save-reuse-level=0 / analysis-load-reuse-level=0 / scale-factor=0 / refine-intra=0 / refine-inter=0 / refine-mv=1 / refine-ctu-distortion=0 / no-limit-sao / ctu-info=0 / no-lowpass-dct / refine-analysis-type=0 / copy-pic=1 / max-ausize-factor=1.0 / no-dynamic-refine / no-single-sei / no-hevc-aq / no-svt / no-field / qp-adaptation-range=1.00 / no-scenecut-aware-qpconformance-window-offsets / right=0 / bottom=0 / NTMzNTQ= / decoder-max-rate=0

  35. Language : English

  36. Default : Yes

  37. Forced : No

  38. Color range : Limited

  39. Color primaries : BT.709

  40. Transfer characteristics : BT.709

  41. Matrix coefficients : BT.709


  42. Audio

  43. ID : 2

  44. Format : DTS XLL

  45. Format/Info : Digital Theater Systems

  46. Commercial name : DTS-HD Master Audio

  47. Codec ID : A_DTS

  48. Duration : 1 h 54 min

  49. Bit rate mode : Variable

  50. Bit rate : 1 344 kb/s

  51. Channel(s) : 6 channels

  52. Channel layout : C L R Ls Rs LFE

  53. Sampling rate : 48.0 kHz

  54. Frame rate : 93.750 FPS (512 SPF)

  55. Bit depth : 16 bits

  56. Compression mode : Lossless

  57. Stream size : 1.08 GiB (15%)

  58. Title : Japanese DTS-HD Master Audio 5.1 @ 1344 kbps

  59. Language : Japanese

  60. Default : Yes

  61. Forced : No


  62. Text #1

  63. ID : 3

  64. Format : PGS

  65. Codec ID : S_HDMV/PGS

  66. Codec ID/Info : Picture based subtitle format used on BDs/HD-DVDs

  67. Duration : 1 h 49 min

  68. Bit rate : 28.1 kb/s

  69. Count of elements : 1506

  70. Stream size : 21.9 MiB (0%)

  71. Title : Eng/SUP

  72. Language : English

  73. Default : No

  74. Forced : No


  75. Text #2

  76. ID : 4

  77. Format : PGS

  78. Codec ID : S_HDMV/PGS

  79. Codec ID/Info : Picture based subtitle format used on BDs/HD-DVDs

  80. Duration : 1 h 54 min

  81. Bit rate : 20.0 kb/s

  82. Count of elements : 2705

  83. Stream size : 16.4 MiB (0%)

  84. Title : Chs/SUP 简体

  85. Language : Chinese

  86. Default : Yes

  87. Forced : No


  88. Text #3

  89. ID : 5

  90. Format : PGS

  91. Codec ID : S_HDMV/PGS

  92. Codec ID/Info : Picture based subtitle format used on BDs/HD-DVDs

  93. Duration : 1 h 54 min

  94. Bit rate : 20.8 kb/s

  95. Count of elements : 2705

  96. Stream size : 17.0 MiB (0%)

  97. Title : Cht/SUP 繁体

  98. Language : Chinese

  99. Default : No

  100. Forced : No


  101. Menu

  102. 00:00:00.000 : en:Chapter 1

  103. 00:05:04.804 : en:Chapter 2

  104. 00:12:55.608 : en:Chapter 3

  105. 00:23:13.325 : en:Chapter 4

  106. 00:33:50.395 : en:Chapter 5

  107. 00:41:51.776 : en:Chapter 6

  108. 00:50:42.339 : en:Chapter 7

  109. 01:01:47.537 : en:Chapter 8

  110. 01:10:46.242 : en:Chapter 9

  111. 01:16:47.536 : en:Chapter 10

  112. 01:31:43.832 : en:Chapter 11

  113. 01:43:21.228 : en:Chapter 12




复制代码



文件下载


除非特别注明,本文『娜娜[简繁字幕].Nana.2005.BluRay.1080p.DTS-HD.MA5.1.x265.10bit-btbt9527.com 7.28GB』来源于互联网机器人自动抓取,非本站原创。 浮游电影网不对本文拥有版权,如有侵犯,请联系邮箱:fuyouu#yandex.com[#换成@]投诉。我们会在15个工作日内删除。 但烦请转载时请标明出处:“本文转载于『浮游电影网』,原文地址:https://www.fuyouu.com/19290.html

评论吧骚年!

发表你的见解   

昵称*

E-mail*(建议输入,以便收到博主回复的提示邮件)

验证码*

您可以使用eMule或eMule Mod(Windows)、aMule(Win、Linux、Mac)等软件下载eD2k链接。。
eMule收藏集(.emulecollection)文件是您选中的所有链接的列表文件。eMule可以直接下载它们。
按住SHIFT键选择可以选中多个选择框。
可用文件名和大小选择器来选择文件。
文件名选择器帮您根据文件名称或后缀来选择文件。不分大小写。
符号使用:
和:空格( )、+
不包含:-
或:|
转义:一对英文引号("");
匹配开头:^
匹配结尾:$
例如:
选中所有名称中包含有“eMule”或“0.49c”字眼,但不包含有“exe”字眼的:emule|0.49c -exe
选中所有名称的开头是“eMule”,结尾是“0.49c”的:^emule 0.49c$
选中所有名称中带有“eMule 0.49c”的(必须是“eMule 0.49c”,中间没有别的字符,不能是“eMule fake 0.49c”),需要转义:"emule 0.49c"
大小选择器帮您根据文件大小选择文件。