当前位置: 首页 >> 动画电影 >> 老鹰抓小鸡[国语配音/中文字幕].Gold.Beak.2021.2160p.WEB-DL.H265.DDP5.1-btbt9527.com 2.04GB >> 正文

老鹰抓小鸡[国语配音/中文字幕].Gold.Beak.2021.2160p.WEB-DL.H265.DDP5.1-btbt9527.com 2.04GB

2021年12月13日 14:02:04     电影发布:来源于网络     电影分类:动画电影     评论(0)    

老鹰抓小鸡[国语配音/中文字幕].Gold.Beak.2021.2160p.WEB DL.H265.DDP5.1 btbt9527.com 2.04GB 动画片 动画电影  第1张

◎译 名 老鹰抓小鸡

◎年 代 2021

◎产 地 中国大陆

◎类 别 动画

◎语 言 汉语普通话

◎上映日期 2021-10-01(中国大陆)

◎IMDb链接 https://www.imdb.com/title//

◎豆瓣链接 https://movie.douban.com/subject/35529231/

◎片 长 94分钟

◎导 演 董龙 Long Dong (id:1459910)

◎演 员 刘星佐 Xingzuo Liu (id:1460627)

杏林儿 Xingliner (id:1421280)

陈浩 Hao Chen (id:1329520)

幻听 (id:1460628)

一舟 (id:1460629)

李南 Nan Li (id:1422039)

绿绮 Qi Lü (id:1372724)

任俊鹏 Junpeng Ren (id:1420966)

囧森瑟夫 Joseph (id:1400125)

雨辰 Yu Chen (id:1422697)

零柒 (id:1460630)

陈庆林 Kylin Chen (id:1464805)

◎标 签 喜剧 / 动作 / 励志 / 动画 / 内地 / 香港 / 国产 / 梦想

◎简 介

失去双亲的小鹰金宝遗落鸡村,被善良的鸡妈妈抚养长大。鹰性难移的他与鸡村格格不入,频频闯祸。渴望认同与飞翔的金宝决定前往鸟城解开身世之谜,叛逆不服命运的小鸡姐姐艾迪和他一同踏上了冒险之旅。在鸟城,金宝终于找到亲人,得知自己出身不凡。他努力加入了鸟城护卫队,以超凡的飞行实力赢得了荣耀与认可。当金宝沉浸于幸福之时,一个惊天阴谋却悄然靠近,尘封多年的悬案慢慢揭穿,老鹰与小鸡的宿命之战即将打响。作为一只在鸡村长大的鹰,金宝必须在天性血缘与抚育亲情之间做出选择。懵懂少年能否在这一场突如其来的考验中成长为正义英雄呢?

  1. ##### MediaInfo ######

  2. General

  3. Unique ID : 336720291434635142308533964103251431615 (0xFD51F81E84BF7EAF830E3483252C90BF)

  4. Complete name : 老鹰抓小鸡[email protected]

  5. Format : Matroska

  6. Format version : Version 4

  7. File size : 2.03 GiB

  8. Duration : 1 h 34 min

  9. Overall bit rate : 3 099 kb/s

  10. Encoded date : UTC 2021-12-12 01:52:52

  11. Writing application : mkvmerge v56.1.0 ('My Friend') 64-bit

  12. Writing library : libebml v1.4.2 + libmatroska v1.6.4


  13. Video

  14. ID : 2

  15. Format : HEVC

  16. Format/Info : High Efficiency Video Coding

  17. Format profile : [email protected]@Main

  18. Codec ID : V_MPEGH/ISO/HEVC

  19. Duration : 1 h 34 min

  20. Bit rate : 2 841 kb/s

  21. Width : 3 840 pixels

  22. Height : 1 616 pixels

  23. Display aspect ratio : 2.40:1

  24. Frame rate mode : Constant

  25. Frame rate : 24.000 FPS

  26. Color space : YUV

  27. Chroma subsampling : 4:2:0

  28. Bit depth : 8 bits

  29. Bits/(Pixel*Frame) : 0.019

  30. Stream size : 1.87 GiB (92%)

  31. Default : Yes

  32. Forced : No


  33. Audio

  34. ID : 1

  35. Format : E-AC-3

  36. Format/Info : Enhanced AC-3

  37. Commercial name : Dolby Digital Plus

  38. Codec ID : A_EAC3

  39. Duration : 1 h 34 min

  40. Bit rate mode : Constant

  41. Bit rate : 256 kb/s

  42. Channel(s) : 6 channels

  43. Channel layout : L R C LFE Ls Rs

  44. Sampling rate : 48.0 kHz

  45. Frame rate : 31.250 FPS (1536 SPF)

  46. Compression mode : Lossy

  47. Stream size : 172 MiB (8%)

  48. Service kind : Complete Main

  49. Default : Yes

  50. Forced : No




复制代码



文件下载


除非特别注明,本文『老鹰抓小鸡[国语配音/中文字幕].Gold.Beak.2021.2160p.WEB-DL.H265.DDP5.1-btbt9527.com 2.04GB』来源于互联网机器人自动抓取,非本站原创。 浮游电影网不对本文拥有版权,如有侵犯,请联系邮箱:fuyouu#yandex.com[#换成@]投诉。我们会在15个工作日内删除。 但烦请转载时请标明出处:“本文转载于『浮游电影网』,原文地址:https://www.fuyouu.com/19287.html

评论吧骚年!

发表你的见解   

昵称*

E-mail*(建议输入,以便收到博主回复的提示邮件)

验证码*

您可以使用eMule或eMule Mod(Windows)、aMule(Win、Linux、Mac)等软件下载eD2k链接。。
eMule收藏集(.emulecollection)文件是您选中的所有链接的列表文件。eMule可以直接下载它们。
按住SHIFT键选择可以选中多个选择框。
可用文件名和大小选择器来选择文件。
文件名选择器帮您根据文件名称或后缀来选择文件。不分大小写。
符号使用:
和:空格( )、+
不包含:-
或:|
转义:一对英文引号("");
匹配开头:^
匹配结尾:$
例如:
选中所有名称中包含有“eMule”或“0.49c”字眼,但不包含有“exe”字眼的:emule|0.49c -exe
选中所有名称的开头是“eMule”,结尾是“0.49c”的:^emule 0.49c$
选中所有名称中带有“eMule 0.49c”的(必须是“eMule 0.49c”,中间没有别的字符,不能是“eMule fake 0.49c”),需要转义:"emule 0.49c"
大小选择器帮您根据文件大小选择文件。