当前位置: 首页 >> 海外电影 >> 追击巨怪[简繁字幕].Trollhunter.2010.BluRay.1080p.DTS-HD.MA5.1.x265.10bit-btbt9527.com 11.05GB >> 正文

追击巨怪[简繁字幕].Trollhunter.2010.BluRay.1080p.DTS-HD.MA5.1.x265.10bit-btbt9527.com 11.05GB

2021年12月13日 13:52:26     电影发布:来源于网络     电影分类:海外电影     评论(0)    

追击巨怪[简繁字幕].Trollhunter.2010.BluRay.1080p.DTS HD.MA5.1.x265.10bit btbt9527.com 11.05GB 奇幻片 恐怖片 剧情片 海外电影  第1张

◎译 名 追击巨怪 / 巨怪猎人 / The Troll Hunter

◎片 名 Trolljegeren

◎年 代 2010

◎产 地 挪威

◎类 别 剧情 / 恐怖 / 奇幻

◎语 言 挪威语

◎上映日期 2010-10-29(挪威)

◎IMDb链接 https://www.imdb.com/title/tt1740707/

◎豆瓣评分 6.1/10 (2162人评价)

◎豆瓣链接 https://movie.douban.com/subject/5294298/

◎片 长 99分钟

◎导 演 安德烈·艾弗道夫 André ?vredal (id:1352843)

◎编 剧 安德烈·艾弗道夫 André ?vredal (id:1352843)

◎演 员 奥托·杰斯帕森 Otto Jespersen (id:1102651)

格伦·厄兰·托斯特鲁德 Glenn Erland Tosterud (id:1339082)

罗伯特·施托尔滕贝格 Robert Stoltenberg (id:1087780)

克努特·奈勒姆 Knut N?rum (id:1129058)

托马斯·阿尔夫·拉森 Tomas Alf Larsen (id:1405671)

约翰娜·莫尔克 Johanna M?rck (id:1406867)

John M. Jacobsen John M. Jacobsen (id:1287508)

哈尔瓦德·布莱恩 Hallvard Br?in (id:1279537)

◎标 签 挪威 / 伪记录片 / 科幻 / 伪纪录片 / 冒险 / 挪威电影 / 2010 / 悬疑

◎简 介

2008年的一天,挪威沃达大学托马斯(Glenn Erland Tosterud 饰)、乔安娜(Johanna M?rck 饰)组成的摄制组,前往偏远山区追踪猎熊人。在合法的猎人中间,他们口耳相传着一个名叫汉斯的男子,他被形容成为无法无天的刽子手。摄制组来到汉斯的所在的 拖车公园等候,并成功见到汉斯,然而对方并不予以配合。这群年轻人百折不挠,决定持续跟踪,结果在一座森林里见到难以置信的一幕:身高十几米长着三个脑袋的巨型怪物。汉斯将其称之为巨怪,是政府秘密进行的转基因产物,多以石头为生,害怕紫外线照射。

虽然受到相关政府部门的阻挠,但是汉斯和年轻人们还是将巨怪存在的事实记录下来,公之于众……

  1. ##### MediaInfo ######

  2. General

  3. Unique ID : 218555019828013399983116985172900869636 (0xA46C2A6C83933BBF64F5A863241A7604)

  4. Complete name : [email protected]ome.mkv

  5. Format : Matroska

  6. Format version : Version 4

  7. File size : 11.1 GiB

  8. Duration : 1 h 44 min

  9. Overall bit rate mode : Variable

  10. Overall bit rate : 15.2 Mb/s

  11. Encoded date : UTC 2021-12-10 09:58:32

  12. Writing application : mkvmerge v49.0.0 ('Sick Of Losing Soulmates') 64-bit

  13. Writing library : libebml v1.4.0 + libmatroska v1.6.1


  14. Video

  15. ID : 1

  16. Format : HEVC

  17. Format/Info : High Efficiency Video Coding

  18. Format profile : Main [email protected]@High

  19. Codec ID : V_MPEGH/ISO/HEVC

  20. Duration : 1 h 43 min

  21. Bit rate : 10.9 Mb/s

  22. Width : 1 920 pixels

  23. Height : 1 040 pixels

  24. Display aspect ratio : 1.85:1

  25. Frame rate mode : Constant

  26. Frame rate : 23.976 (24000/1001/53354) FPS

  27. Color space : YUV

  28. Chroma subsampling : 4:2:0

  29. Bit depth : 10 bits

  30. Bits/(Pixel*Frame) : 0.228

  31. Stream size : 7.92 GiB (72%)

  32. Title : HEVC, [email protected]@High, 24/1.001 fps @ 10935 kbps

  33. Writing library : x265 3.4+14-gd419c7152:[Windows][GCC 10.2.0][64 bit] 10bit

  34. Encoding settings : cpuid=533541111039 / frame-threads=4 / numa-pools=16 / wpp / pmode / pme / no-psnr / no-ssim / log-level=2 / input-csp=1 / input-res=1920x1040 / interlace=0 / total-frames=149184 / level-idc=51 / high-tier=1 / uhd-bd=0 / ref=5 / no-allow-non-conformance / no-repeat-headers / annexb / no-aud / no-hrd / info / hash=0 / no-temporal-layers / open-gop / min-keyint=24 / keyint=240 / gop-lookahead=0 / bframes=6 / b-adapt=2 / b-pyramid / bframe-bias=0 / rc-lookahead=40 / lookahead-slices=0 / NTMzNTQ=uuDQuD2mJt9fsCf / scenecut=40 / hist-scenecut=0 / radl=0 / no-splice / no-intra-refresh / ctu=32 / min-cu-size=8 / no-rect / no-amp / max-tu-size=32 / tu-inter-depth=3 / tu-intra-depth=3 / limit-tu=4 / rdoq-level=2 / dynamic-rd=0.00 / no-ssim-rd / signhide / no-tskip / nr-intra=0 / nr-inter=0 / no-constrained-intra / no-strong-intra-smoothing / max-merge=4 / limit-refs=1 / limit-modes / me=3 / subme=4 / merange=25 / temporal-mvp / no-frame-dup / no-hme / weightp / weightb / no-analyze-src-pics / deblock=-3:-3 / no-sao / no-sao-non-deblock / rd=6 / selective-sao=0 / no-early-skip / rskip / no-fast-intra / no-tskip-fast / no-cu-lossless / b-intra / no-splitrd-skip / rdpenalty=0 / psy-rd=2.00 / psy-rdoq=1.00 / no-rd-refine / no-lossless / cbqpoffs=0 / crqpoffs=0 / rc=crf / crf=19.5 / qcomp=0.65 / qpstep=4 / stats-write=0 / stats-read=0 / vbv-maxrate=80000 / vbv-bufsize=80000 / vbv-init=0.9 / crf-max=0.0 / crf-min=0.0 / ipratio=1.40 / pbratio=1.30 / aq-mode=2 / aq-strength=0.85 / cutree / zone-count=0 / no-strict-cbr / qg-size=32 / no-rc-grain / qpmax=69 / qpmin=0 / no-const-vbv / sar=1 / overscan=0 / videoformat=5 / range=0 / colorprim=1 / transfer=1 / colormatrix=1 / chromaloc=0 / display-window=0 / cll=0,0 / min-luma=0 / max-luma=1023 / log2-max-poc-lsb=8 / vui-timing-info / vui-hrd-info / slices=1 / no-opt-qp-pps / no-opt-ref-list-length-pps / no-multi-pass-opt-rps / scenecut-bias=0.05 / hist-threshold=0.03 / no-opt-cu-delta-qp / no-aq-motion / no-hdr10 / no-hdr10-opt / no-dhdr10-opt / no-idr-recovery-sei / analysis-reuse-level=0 / analysis-save-reuse-level=0 / analysis-load-reuse-level=0 / scale-factor=0 / refine-intra=0 / refine-inter=0 / refine-mv=1 / refine-ctu-distortion=0 / no-limit-sao / ctu-info=0 / no-lowpass-dct / refine-analysis-type=0 / copy-pic=1 / max-ausize-factor=1.0 / no-dynamic-refine / no-single-sei / no-hevc-aq / no-svt / no-field / qp-adaptation-range=1.00 / no-scenecut-aware-qpconformance-window-offsets / right=0 / bottom=0 / NTMzNTQ= / decoder-max-rate=0

  35. Language : English

  36. Default : Yes

  37. Forced : No

  38. Color range : Limited

  39. Color primaries : BT.709

  40. Transfer characteristics : BT.709

  41. Matrix coefficients : BT.709


  42. Audio

  43. ID : 2

  44. Format : DTS XLL

  45. Format/Info : Digital Theater Systems

  46. Commercial name : DTS-HD Master Audio

  47. Codec ID : A_DTS

  48. Duration : 1 h 44 min

  49. Bit rate mode : Variable

  50. Bit rate : 4 246 kb/s

  51. Channel(s) : 6 channels

  52. Channel layout : C L R Ls Rs LFE

  53. Sampling rate : 48.0 kHz

  54. Frame rate : 93.750 FPS (512 SPF)

  55. Bit depth : 24 bits

  56. Compression mode : Lossless

  57. Delay relative to video : 15 s 348 ms

  58. Stream size : 3.09 GiB (28%)

  59. Title : Norwegian DTS-HD Master Audio 5.1 @ 4246?kbps

  60. Language : Norwegian

  61. Default : Yes

  62. Forced : No


  63. Text #1

  64. ID : 3

  65. Format : PGS

  66. Codec ID : S_HDMV/PGS

  67. Codec ID/Info : Picture based subtitle format used on BDs/HD-DVDs

  68. Duration : 1 h 43 min

  69. Bit rate : 28.0 kb/s

  70. Count of elements : 1486

  71. Stream size : 20.6 MiB (0%)

  72. Title : English

  73. Language : English

  74. Default : No

  75. Forced : No


  76. Text #2

  77. ID : 4

  78. Format : PGS

  79. Codec ID : S_HDMV/PGS

  80. Codec ID/Info : Picture based subtitle format used on BDs/HD-DVDs

  81. Duration : 1 h 39 min

  82. Bit rate : 16.8 kb/s

  83. Count of elements : 1544

  84. Stream size : 12.1 MiB (0%)

  85. Title : Chs/SUP 简体

  86. Language : Chinese

  87. Default : Yes

  88. Forced : No


  89. Text #3

  90. ID : 5

  91. Format : PGS

  92. Codec ID : S_HDMV/PGS

  93. Codec ID/Info : Picture based subtitle format used on BDs/HD-DVDs

  94. Duration : 1 h 39 min

  95. Bit rate : 17.4 kb/s

  96. Count of elements : 1544

  97. Stream size : 12.4 MiB (0%)

  98. Title : Cht/SUP 繁体

  99. Language : Chinese

  100. Default : No

  101. Forced : No


  102. Menu

  103. 00:00:00.000 : en:Anonymous Package

  104. 00:10:50.775 : en:Hans

  105. 00:20:31.063 : en:First Aid Kit

  106. 00:31:23.673 : en:Wait Here

  107. 00:40:55.453 : en:Turn Off That Camera

  108. 00:52:24.141 : en:Small Trolls

  109. 01:02:40.173 : en:Trolls Explode

  110. 01:13:07.216 : en:First Territory

  111. 01:23:19.703 : en:Mountain Kings

  112. 01:28:27.219 : en:No Trolls

  113. 01:34:54.022 : en:Are You Crazy?

  114. 01:40:24.268 : en:Recordings End Here




复制代码



文件下载


除非特别注明,本文『追击巨怪[简繁字幕].Trollhunter.2010.BluRay.1080p.DTS-HD.MA5.1.x265.10bit-btbt9527.com 11.05GB』来源于互联网机器人自动抓取,非本站原创。 浮游电影网不对本文拥有版权,如有侵犯,请联系邮箱:fuyouu#yandex.com[#换成@]投诉。我们会在15个工作日内删除。 但烦请转载时请标明出处:“本文转载于『浮游电影网』,原文地址:https://www.fuyouu.com/19282.html

评论吧骚年!

发表你的见解   

昵称*

E-mail*(建议输入,以便收到博主回复的提示邮件)

验证码*

您可以使用eMule或eMule Mod(Windows)、aMule(Win、Linux、Mac)等软件下载eD2k链接。。
eMule收藏集(.emulecollection)文件是您选中的所有链接的列表文件。eMule可以直接下载它们。
按住SHIFT键选择可以选中多个选择框。
可用文件名和大小选择器来选择文件。
文件名选择器帮您根据文件名称或后缀来选择文件。不分大小写。
符号使用:
和:空格( )、+
不包含:-
或:|
转义:一对英文引号("");
匹配开头:^
匹配结尾:$
例如:
选中所有名称中包含有“eMule”或“0.49c”字眼,但不包含有“exe”字眼的:emule|0.49c -exe
选中所有名称的开头是“eMule”,结尾是“0.49c”的:^emule 0.49c$
选中所有名称中带有“eMule 0.49c”的(必须是“eMule 0.49c”,中间没有别的字符,不能是“eMule fake 0.49c”),需要转义:"emule 0.49c"
大小选择器帮您根据文件大小选择文件。