当前位置: 首页 >> 海外电影 >> 黄金单身汉[中文字幕].Most.Eligible.Bachelor.2021.1080p.NF.WEB-DL.DDP5.1.x264-btbt9527.com 4.31GB >> 正文

黄金单身汉[中文字幕].Most.Eligible.Bachelor.2021.1080p.NF.WEB-DL.DDP5.1.x264-btbt9527.com 4.31GB

2021年12月13日 13:38:09     电影发布:来源于网络     电影分类:海外电影     评论(0)    

黄金单身汉[中文字幕].Most.Eligible.Bachelor.2021.1080p.NF.WEB DL.DDP5.1.x264 btbt9527.com 4.31GB 爱情片 喜剧片 剧情片 海外电影  第1张

◎译 名 黄金单身汉 / Most Eligible Bachelor

◎片 名 ?????? ????????? ?????? ???

◎年 代 2021

◎产 地 印度

◎类 别 剧情 / 喜剧 / 爱情

◎语 言 泰卢固语

◎上映日期 2021-01-15(印度)

◎IMDb链接 https://www.imdb.com/title/tt11725680/

◎豆瓣链接 https://movie.douban.com/subject/35239545/

◎片 长 170分钟

◎导 演 博迈里卢·巴斯卡 Bommarillu Baskar (id:1462935)

◎编 剧 博迈里卢·巴斯卡 Bommarillu Baskar (id:1462935)

◎演 员 阿基尔·阿吉奈尼 Akhil Akkineni (id:1427968)

普嘉·海婅 Pooja Hegde (id:1358884)

◎标 签 netflix未看 / netflix原创电影

◎简 介

电影讲述了 Harsha 和 Vibha 带有喜剧色彩的爱情故事,在故事中他们直面各自对婚姻和生活的理念。

  1. ##### MediaInfo ######

  2. General

  3. Unique ID : 49970052446091240698321074939620458060 (0x2597E1CCE7B0ABE145D8BB6962037E4C)

  4. Complete name : [email protected]VHome.mkv

  5. Format : Matroska

  6. Format version : Version 4

  7. File size : 4.31 GiB

  8. Duration : 2 h 23 min

  9. Overall bit rate mode : Variable

  10. Overall bit rate : 4 297 kb/s

  11. Encoded date : UTC 2021-12-11 15:07:34

  12. Writing application : mkvmerge v62.0.0 ('Apollo') 64-bit

  13. Writing library : libebml v1.4.2 + libmatroska v1.6.4


  14. Video

  15. ID : 1

  16. Format : AVC

  17. Format/Info : Advanced Video Codec

  18. Format profile : [email protected]

  19. Format settings : CABAC / 3 Ref Frames

  20. Format settings, CABAC : Yes

  21. Format settings, Reference frames : 3 frames

  22. Codec ID : V_MPEG4/ISO/AVC

  23. Duration : 2 h 23 min

  24. Bit rate mode : Variable

  25. Bit rate : 3 830 kb/s

  26. Maximum bit rate : 5 745 kb/s

  27. Width : 1 920 pixels

  28. Height : 1 080 pixels

  29. Display aspect ratio : 16:9

  30. Frame rate mode : Constant

  31. Frame rate : 24.000 FPS

  32. Color space : YUV

  33. Chroma subsampling : 4:2:0

  34. Bit depth : 8 bits

  35. Scan type : Progressive

  36. Bits/(Pixel*Frame) : 0.077

  37. Stream size : 3.66 GiB (85%)

  38. Writing library : x264 core 148 r2727 7d026e8

  39. Encoding settings : cabac=1 / ref=3 / deblock=1:0:0 / analyse=0x1:0x111 / me=umh / subme=10 / psy=1 / psy_rd=1.00:0.00 / mixed_ref=1 / me_range=24 / chroma_me=1 / trellis=2 / 8x8dct=0 / cqm=0 / deadzone=21,11 / fast_pskip=1 / chroma_qp_offset=-2 / threads=6 / lookahead_threads=1 / sliced_threads=0 / nr=0 / decimate=1 / interlaced=0 / NTMzNTQ= / bluray_compat=0 / stitchable=1 / constrained_intra=0 / bframes=2 / b_pyramid=0 / b_adapt=2 / b_bias=0 / direct=3 / weightb=1 / open_gop=0 / weightp=2 / keyint=250 / keyint_min=24 / scenecut=0 / intra_refresh=0 / rc_lookahead=48 / rc=2pass / mbtree=1 / bitrate=3830 / ratetol=1.0 / qcomp=0.50 / qpmin=6 / qpmax=51 / qpstep=4 / cplxblur=20.0 / qblur=0.5 / vbv_maxrate=5745 / vbv_bufsize=7660 / nal_hrd=vbr / filler=0 / NTMzNTQ=LmsMAP37EqsCpk / ip_ratio=1.40 / aq=1:1.00

  40. Default : Yes

  41. Forced : No


  42. Audio

  43. ID : 2

  44. Format : E-AC-3

  45. Format/Info : Enhanced AC-3

  46. Commercial name : Dolby Digital Plus

  47. Codec ID : A_EAC3

  48. Duration : 2 h 23 min

  49. Bit rate mode : Constant

  50. Bit rate : 640 kb/s

  51. Channel(s) : 6 channels

  52. Channel layout : L R C LFE Ls Rs

  53. Sampling rate : 48.0 kHz

  54. Frame rate : 31.250 FPS (1536 SPF)

  55. Compression mode : Lossy

  56. Stream size : 657 MiB (15%)

  57. Title : Telugu

  58. Language : Telugu

  59. Service kind : Complete Main

  60. Default : Yes

  61. Forced : No


  62. Text

  63. ID : 3

  64. Format : UTF-8

  65. Codec ID : S_TEXT/UTF8

  66. Codec ID/Info : UTF-8 Plain Text

  67. Duration : 2 h 22 min

  68. Bit rate : 89 b/s

  69. Count of elements : 2445

  70. Stream size : 92.9 KiB (0%)

  71. Title : English

  72. Language : English

  73. Default : Yes

  74. Forced : No




复制代码



文件下载


除非特别注明,本文『黄金单身汉[中文字幕].Most.Eligible.Bachelor.2021.1080p.NF.WEB-DL.DDP5.1.x264-btbt9527.com 4.31GB』来源于互联网机器人自动抓取,非本站原创。 浮游电影网不对本文拥有版权,如有侵犯,请联系邮箱:fuyouu#yandex.com[#换成@]投诉。我们会在15个工作日内删除。 但烦请转载时请标明出处:“本文转载于『浮游电影网』,原文地址:https://www.fuyouu.com/19277.html

评论吧骚年!

发表你的见解   

昵称*

E-mail*(建议输入,以便收到博主回复的提示邮件)

验证码*

您可以使用eMule或eMule Mod(Windows)、aMule(Win、Linux、Mac)等软件下载eD2k链接。。
eMule收藏集(.emulecollection)文件是您选中的所有链接的列表文件。eMule可以直接下载它们。
按住SHIFT键选择可以选中多个选择框。
可用文件名和大小选择器来选择文件。
文件名选择器帮您根据文件名称或后缀来选择文件。不分大小写。
符号使用:
和:空格( )、+
不包含:-
或:|
转义:一对英文引号("");
匹配开头:^
匹配结尾:$
例如:
选中所有名称中包含有“eMule”或“0.49c”字眼,但不包含有“exe”字眼的:emule|0.49c -exe
选中所有名称的开头是“eMule”,结尾是“0.49c”的:^emule 0.49c$
选中所有名称中带有“eMule 0.49c”的(必须是“eMule 0.49c”,中间没有别的字符,不能是“eMule fake 0.49c”),需要转义:"emule 0.49c"
大小选择器帮您根据文件大小选择文件。