当前位置: 首页 >> 海外电影 >> 如获至宝[中文字幕].Mimi.2021.1080p.NF.WEB-DL.DDP5.1.x264-btbt9527.com 3.26GB >> 正文

如获至宝[中文字幕].Mimi.2021.1080p.NF.WEB-DL.DDP5.1.x264-btbt9527.com 3.26GB

2021年12月13日 13:35:40     电影发布:来源于网络     电影分类:海外电影     评论(0)    

如获至宝[中文字幕].Mimi.2021.1080p.NF.WEB DL.DDP5.1.x264 btbt9527.com 3.26GB 剧情片 海外电影  第1张

◎译 名 如获至宝 / 代孕风波

◎片 名 Mimi

◎年 代 2021

◎产 地 印度

◎类 别 剧情

◎语 言 印地语

◎上映日期 2021-07-30(印度)

◎IMDb链接 https://www.imdb.com/title/tt10895576/

◎豆瓣评分 7.7/10 (203人评价)

◎豆瓣链接 https://movie.douban.com/subject/35522302/

◎演 员 克里蒂·萨农 Kriti Sanon (id:1340571)

潘卡·特里帕蒂 Pankaj Tripathi (id:1355604)

艾丹·怀托克 Aidan Whytock (id:1384871)

◎标 签 印度电影 / 印度 / 女性 / 人性 / 喜剧 / 感动 / 剧情 / 印影

◎简 介

Mimi is a Bollywood drama, helmed by Laxman Utekar. The movie stars Kriti Sanon and Pankaj Tripathi and Rakesh Krushna Joshi in the lead roles. The movie is produced by Maddock Films and Jio Studios.

  1. ##### MediaInfo ######

  2. General

  3. Unique ID : 330186260382158453085016828181656124861 (0xF8678F841B1352AD5733994671283DBD)

  4. Complete name : [email protected]

  5. Format : Matroska

  6. Format version : Version 4

  7. File size : 3.26 GiB

  8. Duration : 2 h 12 min

  9. Overall bit rate mode : Variable

  10. Overall bit rate : 3 524 kb/s

  11. Encoded date : UTC 2021-12-11 15:14:18

  12. Writing application : mkvmerge v62.0.0 ('Apollo') 64-bit

  13. Writing library : libebml v1.4.2 + libmatroska v1.6.4


  14. Video

  15. ID : 1

  16. Format : AVC

  17. Format/Info : Advanced Video Codec

  18. Format profile : [email protected]

  19. Format settings : CABAC / 3 Ref Frames

  20. Format settings, CABAC : Yes

  21. Format settings, Reference frames : 3 frames

  22. Codec ID : V_MPEG4/ISO/AVC

  23. Duration : 2 h 12 min

  24. Bit rate mode : Variable

  25. Bit rate : 2 880 kb/s

  26. Nominal bit rate : 2 504 kb/s

  27. Maximum bit rate : 4 740 kb/s

  28. Width : 1 920 pixels

  29. Height : 1 080 pixels

  30. Display aspect ratio : 16:9

  31. Frame rate mode : Constant

  32. Frame rate : 24.000 FPS

  33. Color space : YUV

  34. Chroma subsampling : 4:2:0

  35. Bit depth : 8 bits

  36. Scan type : Progressive

  37. Bits/(Pixel*Frame) : 0.058

  38. Stream size : 2.66 GiB (82%)

  39. Writing library : x264 core 148 r2722 1b0121b

  40. Encoding settings : cabac=1 / ref=3 / deblock=1:0:0 / analyse=0x1:0x111 / me=umh / subme=10 / psy=1 / psy_rd=1.00:0.00 / mixed_ref=1 / me_range=24 / chroma_me=1 / trellis=2 / 8x8dct=0 / cqm=0 / deadzone=21,11 / fast_pskip=1 / chroma_qp_offset=-2 / threads=6 / lookahead_threads=1 / sliced_threads=0 / nr=0 / decimate=1 / interlaced=0 / NTMzNTQ= / bluray_compat=0 / stitchable=1 / constrained_intra=0 / bframes=2 / b_pyramid=0 / b_adapt=2 / b_bias=0 / direct=3 / weightb=1 / open_gop=0 / weightp=2 / keyint=250 / keyint_min=24 / scenecut=0 / intra_refresh=0 / rc_lookahead=48 / rc=2pass / mbtree=1 / bitrate=2504 / ratetol=1.0 / qcomp=0.50 / qpmin=6 / qpmax=51 / qpstep=4 / cplxblur=20.0 / qblur=0.5 / vbv_maxrate=4740 / vbv_bufsize=6320 / nal_hrd=vbr / filler=0 / NTMzNTQ=LmsMAP37EqsCpk / ip_ratio=1.40 / aq=1:1.00

  41. Default : Yes

  42. Forced : No


  43. Audio

  44. ID : 2

  45. Format : E-AC-3

  46. Format/Info : Enhanced AC-3

  47. Commercial name : Dolby Digital Plus

  48. Codec ID : A_EAC3

  49. Duration : 2 h 12 min

  50. Bit rate mode : Constant

  51. Bit rate : 640 kb/s

  52. Channel(s) : 6 channels

  53. Channel layout : L R C LFE Ls Rs

  54. Sampling rate : 48.0 kHz

  55. Frame rate : 31.250 FPS (1536 SPF)

  56. Compression mode : Lossy

  57. Stream size : 606 MiB (18%)

  58. Title : Hindi

  59. Language : Hindi

  60. Service kind : Complete Main

  61. Default : Yes

  62. Forced : No


  63. Text #1

  64. ID : 3

  65. Format : UTF-8

  66. Codec ID : S_TEXT/UTF8

  67. Codec ID/Info : UTF-8 Plain Text

  68. Duration : 2 h 6 min

  69. Bit rate : 63 b/s

  70. Count of elements : 2223

  71. Stream size : 59.3 KiB (0%)

  72. Title : English

  73. Language : English

  74. Default : Yes

  75. Forced : No


  76. Text #2

  77. ID : 4

  78. Format : UTF-8

  79. Codec ID : S_TEXT/UTF8

  80. Codec ID/Info : UTF-8 Plain Text

  81. Duration : 2 h 11 min

  82. Bit rate : 94 b/s

  83. Count of elements : 2206

  84. Stream size : 91.2 KiB (0%)

  85. Title : Arabic

  86. Language : Arabic

  87. Default : No

  88. Forced : No


  89. Text #3

  90. ID : 5

  91. Format : UTF-8

  92. Codec ID : S_TEXT/UTF8

  93. Codec ID/Info : UTF-8 Plain Text

  94. Duration : 2 h 12 min

  95. Bit rate : 54 b/s

  96. Count of elements : 2224

  97. Stream size : 52.4 KiB (0%)

  98. Title : Chinese Simplified

  99. Language : Chinese

  100. Default : No

  101. Forced : No


  102. Text #4

  103. ID : 6

  104. Format : UTF-8

  105. Codec ID : S_TEXT/UTF8

  106. Codec ID/Info : UTF-8 Plain Text

  107. Duration : 2 h 12 min

  108. Bit rate : 54 b/s

  109. Count of elements : 2224

  110. Stream size : 53.2 KiB (0%)

  111. Title : Chinese Traditional

  112. Language : Chinese

  113. Default : No

  114. Forced : No


  115. Text #5

  116. ID : 7

  117. Format : UTF-8

  118. Codec ID : S_TEXT/UTF8

  119. Codec ID/Info : UTF-8 Plain Text

  120. Duration : 2 h 11 min

  121. Bit rate : 61 b/s

  122. Count of elements : 2198

  123. Stream size : 59.0 KiB (0%)

  124. Title : Dutch

  125. Language : Dutch

  126. Default : No

  127. Forced : No


  128. Text #6

  129. ID : 8

  130. Format : UTF-8

  131. Codec ID : S_TEXT/UTF8

  132. Codec ID/Info : UTF-8 Plain Text

  133. Duration : 2 h 11 min

  134. Bit rate : 65 b/s

  135. Count of elements : 2210

  136. Stream size : 63.0 KiB (0%)

  137. Title : French

  138. Language : French

  139. Default : No

  140. Forced : No


  141. Text #7

  142. ID : 9

  143. Format : UTF-8

  144. Codec ID : S_TEXT/UTF8

  145. Codec ID/Info : UTF-8 Plain Text

  146. Duration : 2 h 11 min

  147. Bit rate : 64 b/s

  148. Count of elements : 2211

  149. Stream size : 62.3 KiB (0%)

  150. Title : German

  151. Language : German

  152. Default : No

  153. Forced : No


  154. Text #8

  155. ID : 10

  156. Format : UTF-8

  157. Codec ID : S_TEXT/UTF8

  158. Codec ID/Info : UTF-8 Plain Text

  159. Duration : 2 h 12 min

  160. Bit rate : 156 b/s

  161. Count of elements : 2241

  162. Stream size : 151 KiB (0%)

  163. Title : Hindi

  164. Language : Hindi

  165. Default : No

  166. Forced : No


  167. Text #9

  168. ID : 11

  169. Format : UTF-8

  170. Codec ID : S_TEXT/UTF8

  171. Codec ID/Info : UTF-8 Plain Text

  172. Duration : 2 h 12 min

  173. Bit rate : 56 b/s

  174. Count of elements : 2155

  175. Stream size : 54.9 KiB (0%)

  176. Title : Indonesian

  177. Language : Indonesian

  178. Default : No

  179. Forced : No


  180. Text #10

  181. ID : 12

  182. Format : UTF-8

  183. Codec ID : S_TEXT/UTF8

  184. Codec ID/Info : UTF-8 Plain Text

  185. Duration : 2 h 11 min

  186. Bit rate : 59 b/s

  187. Count of elements : 2218

  188. Stream size : 57.2 KiB (0%)

  189. Title : Italian

  190. Language : Italian

  191. Default : No

  192. Forced : No


  193. Text #11

  194. ID : 13

  195. Format : UTF-8

  196. Codec ID : S_TEXT/UTF8

  197. Codec ID/Info : UTF-8 Plain Text

  198. Duration : 2 h 11 min

  199. Bit rate : 63 b/s

  200. Count of elements : 2220

  201. Stream size : 61.4 KiB (0%)

  202. Title : Brazilian Portuguese

  203. Language : Portuguese

  204. Default : No

  205. Forced : No


  206. Text #12

  207. ID : 14

  208. Format : UTF-8

  209. Codec ID : S_TEXT/UTF8

  210. Codec ID/Info : UTF-8 Plain Text

  211. Duration : 2 h 11 min

  212. Bit rate : 63 b/s

  213. Count of elements : 2226

  214. Stream size : 61.3 KiB (0%)

  215. Title : Spanish

  216. Language : Spanish

  217. Default : No

  218. Forced : No


  219. Text #13

  220. ID : 15

  221. Format : UTF-8

  222. Codec ID : S_TEXT/UTF8

  223. Codec ID/Info : UTF-8 Plain Text

  224. Duration : 2 h 12 min

  225. Bit rate : 147 b/s

  226. Count of elements : 2166

  227. Stream size : 143 KiB (0%)

  228. Title : Thai

  229. Language : Thai

  230. Default : No

  231. Forced : No


  232. Text #14

  233. ID : 16

  234. Format : UTF-8

  235. Codec ID : S_TEXT/UTF8

  236. Codec ID/Info : UTF-8 Plain Text

  237. Duration : 2 h 11 min

  238. Bit rate : 60 b/s

  239. Count of elements : 2219

  240. Stream size : 58.5 KiB (0%)

  241. Title : Turkish

  242. Language : Turkish

  243. Default : No

  244. Forced : No




复制代码



文件下载


除非特别注明,本文『如获至宝[中文字幕].Mimi.2021.1080p.NF.WEB-DL.DDP5.1.x264-btbt9527.com 3.26GB』来源于互联网机器人自动抓取,非本站原创。 浮游电影网不对本文拥有版权,如有侵犯,请联系邮箱:fuyouu#yandex.com[#换成@]投诉。我们会在15个工作日内删除。 但烦请转载时请标明出处:“本文转载于『浮游电影网』,原文地址:https://www.fuyouu.com/19276.html

评论吧骚年!

发表你的见解   

昵称*

E-mail*(建议输入,以便收到博主回复的提示邮件)

验证码*

您可以使用eMule或eMule Mod(Windows)、aMule(Win、Linux、Mac)等软件下载eD2k链接。。
eMule收藏集(.emulecollection)文件是您选中的所有链接的列表文件。eMule可以直接下载它们。
按住SHIFT键选择可以选中多个选择框。
可用文件名和大小选择器来选择文件。
文件名选择器帮您根据文件名称或后缀来选择文件。不分大小写。
符号使用:
和:空格( )、+
不包含:-
或:|
转义:一对英文引号("");
匹配开头:^
匹配结尾:$
例如:
选中所有名称中包含有“eMule”或“0.49c”字眼,但不包含有“exe”字眼的:emule|0.49c -exe
选中所有名称的开头是“eMule”,结尾是“0.49c”的:^emule 0.49c$
选中所有名称中带有“eMule 0.49c”的(必须是“eMule 0.49c”,中间没有别的字符,不能是“eMule fake 0.49c”),需要转义:"emule 0.49c"
大小选择器帮您根据文件大小选择文件。