当前位置: 首页 >> 港台电影 >> 游龙戏凤[国粤语音轨/中文字幕].Look.for.a.Star.2009.BluRay.1080p.x265.10bit.DDP7.1.MNHD-btbt9527.com 7.34GB >> 正文

游龙戏凤[国粤语音轨/中文字幕].Look.for.a.Star.2009.BluRay.1080p.x265.10bit.DDP7.1.MNHD-btbt9527.com 7.34GB

2021年12月12日 19:32:21     电影发布:来源于网络     电影分类:港台电影     评论(0)    

游龙戏凤[国粤语音轨/中文字幕].Look.for.a.Star.2009.BluRay.1080p.x265.10bit.DDP7.1.MNHD btbt9527.com 7.34GB 爱情片 港台电影  第1张

◎译 名 游龙戏凤 / 星梦奇缘 / Look For a Star

◎片 名 遊龍戲鳳

◎年 代 2009

◎产 地 中国香港

◎类 别 爱情

◎语 言 粤语 / 汉语普通话 / 英语

◎上映日期 2009-01-26

◎IMDb链接 https://www.imdb.com/title/tt1312156/

◎豆瓣评分 6.0/10 (64853人评价)

◎豆瓣链接 https://movie.douban.com/subject/3262939/

◎片 长 117 分钟

◎导 演 刘伟强 Andrew Lau (id:1106979)

◎编 剧 阮世生 James Yuen (id:1023957)

邓洁明 Theresa Tang (id:1298901)

◎演 员 刘德华 Andy Lau (id:1054424)

舒淇 Qi Shu (id:1138320)

张涵予 Hanyu Zhang (id:1274319)

林嘉华 Dominic Lam (id:1321559)

林子祥 George Lam (id:1029253)

姜大卫 David Chiang (id:1013705)

张歆艺 Xinyi Zhang (id:1275455)

张达明 Tat-Ming Cheung (id:1274433)

韩雨芹 Yuqin Han (id:1313681)

田蕊妮 Kristal Tin (id:1275866)

杨宝玲 Pauline Yeung (id:1001559)

姚文雪 Wenxue Yao (id:1313643)

官恩娜 Ella Koon (id:1010910)

张文慈 Pinky Cheung (id:1028399)

韩君婷 Belinda Hamnett (id:1029327)

董敏莉 Monie Tung (id:1038321)

尹子维 Terence Yin (id:1045571)

玛利亚 Maria Cordero (id:1281277)

何华超 Tony Ho (id:1286723)

浦蒲 Lok-tung Po (id:1308904)

裴唯莹 Weiying Pei (id:1310925)

曹永廉 Wing Lim Cho (id:1315068)

王中军 Zhongjun Wang (id:1276036)

王中磊 Zhonglei Wang (id:1276037)

庄澄 John Chong (id:1280710)

刘伟强 Andrew Lau (id:1106979)

陈光荣 Kwong Wing Chan (id:1019903)

伍文拯 Man-Ching Ng (id:1307598)

刘伟强 Andrew Lau (id:1106979)

钟炜钊 Wai Chiu Chung (id:1280783)

张世宏 Silver Cheung (id:1318916)

李光耀 David Lee Kwong-Yiu (id:1335186)

何兆麟 Siu Lun Ho (id:1311769)

黄宏达 Victor Wong (id:1307421)

黄宏显 Eddy Wong (id:1302455)

◎标 签 爱情 / 舒淇 / 刘德华 / 香港电影 / 香港 / 刘伟强 / 游龙戏凤 / 喜剧

◎简 介

幸福是天上玻璃球的碎片,大家拼命的拾捡,却总归不会完满,爱情就是这种带点缺憾的甜蜜幸福。

程仲森(刘德华饰),亿万富翁,却始终没有找到可以携手白老的心爱之人。已经对爱情死心的他为朋友的爱情出谋划策,自己却对爱情不以为意。可是就在无心之时,他遇到了命中的“白骨精”,舞女米兰。

米兰(舒淇饰),自小与烂赌阿姨、好好姨丈同住。善良独立的她热爱跳舞,把跳舞当成自己的事业更是自己的生活。在一次兼职赌场小姐时,米兰偶遇了“烂赌棍”程仲森。爱情的火花点燃了,可是各种摩擦也随之而来。

与此同时,程仲森的好友们也在捡拾着爱情的幸福碎片,争取着自己的幸福。

◎获奖情况 (共2项)

第29届香港电影金像奖 (2010)

最佳女主角(提名)

└──舒淇 (id:1138320)

最佳女配角(提名)

  1. ##### MediaInfo ######

  2. General

  3. Unique ID : 297716017788393059282588309056389713230 (0xDFFA04F4A95B0DEAC2BBB0D580490D4E)

  4. Complete name : [email protected]KVHome.mkv

  5. Format : Matroska

  6. Format version : Version 4

  7. File size : 7.33 GiB

  8. Duration : 1 h 57 min

  9. Overall bit rate : 8 962 kb/s

  10. Movie name : Look for a Star 2009 BluRay 1080p - FRDS

  11. Encoded date : UTC 2021-12-11 13:32:38

  12. Writing application : mkvmerge v63.0.0 ('Everything') 64-bit

  13. Writing library : libebml v1.4.2 + libmatroska v1.6.4


  14. Video

  15. ID : 1

  16. Format : HEVC

  17. Format/Info : High Efficiency Video Coding

  18. Format profile : Main [email protected]@High

  19. Codec ID : V_MPEGH/ISO/HEVC

  20. Duration : 1 h 57 min

  21. Bit rate : 7 250 kb/s

  22. Width : 1 920 pixels

  23. Height : 818 pixels

  24. Display aspect ratio : 2.35:1

  25. Frame rate mode : Constant

  26. Frame rate : 24.000 FPS

  27. Color space : YUV

  28. Chroma subsampling : 4:2:0

  29. Bit depth : 10 bits

  30. Bits/(Pixel*Frame) : 0.192

  31. Stream size : 5.93 GiB (81%)

  32. Writing library : x265 3.5+20-17839cc0d:[Windows][MSVC 1930][64 bit] 10bit

  33. Encoding settings : cpuid=533541111039 / frame-threads=2 / numa-pools=4 / wpp / pmode / no-pme / no-psnr / no-ssim / log-level=2 / input-csp=1 / input-res=1920x818 / interlace=0 / total-frames=168720 / level-idc=0 / high-tier=1 / uhd-bd=0 / ref=6 / no-allow-non-conformance / no-repeat-headers / annexb / no-aud / no-eob / no-eos / no-hrd / info / hash=0 / no-temporal-layers / no-open-gop / min-keyint=1 / keyint=250 / gop-lookahead=0 / bframes=8 / b-adapt=2 / b-pyramid / bframe-bias=0 / rc-lookahead=100 / lookahead-slices=0 / NTMzNTQ=uuDQuD2mJt9fsCf / scenecut=40 / no-hist-scenecut / radl=0 / no-splice / no-intra-refresh / ctu=32 / min-cu-size=8 / no-rect / no-amp / max-tu-size=32 / tu-inter-depth=4 / tu-intra-depth=4 / limit-tu=0 / rdoq-level=2 / dynamic-rd=0.00 / no-ssim-rd / signhide / tskip / nr-intra=0 / nr-inter=0 / no-constrained-intra / strong-intra-smoothing / max-merge=5 / limit-refs=0 / no-limit-modes / me=3 / subme=7 / merange=57 / temporal-mvp / no-frame-dup / no-hme / weightp / weightb / no-analyze-src-pics / deblock=-3:-3 / no-sao / no-sao-non-deblock / rd=4 / selective-sao=0 / no-early-skip / no-rskip / no-fast-intra / no-tskip-fast / no-cu-lossless / b-intra / no-splitrd-skip / rdpenalty=0 / psy-rd=1.50 / psy-rdoq=1.00 / no-rd-refine / no-lossless / cbqpoffs=-2 / crqpoffs=-2 / rc=crf / crf=21.0 / qcomp=0.65 / qpstep=4 / stats-write=0 / stats-read=0 / vbv-maxrate=160000 / vbv-bufsize=160000 / vbv-init=0.9 / min-vbv-fullness=50.0 / max-vbv-fullness=80.0 / crf-max=0.0 / crf-min=0.0 / ipratio=1.30 / pbratio=1.20 / aq-mode=1 / aq-strength=1.00 / cutree / zone-count=0 / no-strict-cbr / qg-size=8 / no-rc-grain / qpmax=69 / qpmin=0 / no-const-vbv / sar=0 / overscan=0 / videoformat=5 / range=0 / colorprim=1 / transfer=1 / colormatrix=1 / chromaloc=0 / display-window=0 / cll=0,0 / min-luma=0 / max-luma=1023 / log2-max-poc-lsb=8 / vui-timing-info / vui-hrd-info / slices=1 / no-opt-qp-pps / no-opt-ref-list-length-pps / no-multi-pass-opt-rps / scenecut-bias=0.05 / hist-threshold=0.03 / no-opt-cu-delta-qp / no-aq-motion / no-hdr10 / no-hdr10-opt / no-dhdr10-opt / no-idr-recovery-sei / analysis-reuse-level=0 / analysis-save-reuse-level=0 / analysis-load-reuse-level=0 / scale-factor=0 / refine-intra=0 / refine-inter=0 / refine-mv=1 / refine-ctu-distortion=0 / no-limit-sao / ctu-info=0 / no-lowpass-dct / refine-analysis-type=0 / copy-pic=1 / max-ausize-factor=1.0 / no-dynamic-refine / no-single-sei / no-hevc-aq / no-svt / no-field / qp-adaptation-range=1.00 / scenecut-aware-qp=0conformance-window-offsets / right=0 / bottom=0 / NTMzNTQ= / decoder-max-rate=0 / no-vbv-live-multi-pass

  34. Default : Yes

  35. Forced : No

  36. Color range : Limited

  37. Color primaries : BT.709

  38. Transfer characteristics : BT.709

  39. Matrix coefficients : BT.709


  40. Audio #1

  41. ID : 2

  42. Format : E-AC-3

  43. Format/Info : Enhanced AC-3

  44. Commercial name : Dolby Digital Plus

  45. Format profile : Blu-ray Disc

  46. Codec ID : A_EAC3

  47. Duration : 1 h 57 min

  48. Bit rate mode : Constant

  49. Bit rate : 1 024 kb/s

  50. Channel(s) : 8 channels

  51. Channel layout : L R C LFE Ls Rs Lb Rb

  52. Sampling rate : 48.0 kHz

  53. Frame rate : 31.250 FPS (1536 SPF)

  54. Compression mode : Lossy

  55. Stream size : 858 MiB (11%)

  56. Title : Cantonese

  57. Language : Chinese

  58. Service kind : Complete Main

  59. Default : Yes

  60. Forced : No


  61. Audio #2

  62. ID : 3

  63. ID in the original source medium : 4354 (0x1102)

  64. Format : AC-3

  65. Format/Info : Audio Coding 3

  66. Commercial name : Dolby Digital

  67. Codec ID : A_AC3

  68. Duration : 1 h 57 min

  69. Bit rate mode : Constant

  70. Bit rate : 640 kb/s

  71. Channel(s) : 6 channels

  72. Channel layout : L R C LFE Ls Rs

  73. Sampling rate : 48.0 kHz

  74. Frame rate : 31.250 FPS (1536 SPF)

  75. Compression mode : Lossy

  76. Stream size : 536 MiB (7%)

  77. Title : Mandarin

  78. Language : Chinese

  79. Service kind : Complete Main

  80. Default : Yes

  81. Forced : No

  82. Original source medium : Blu-ray


  83. Text #1

  84. ID : 4

  85. ID in the original source medium : 4609 (0x1201)

  86. Format : PGS

  87. Muxing mode : zlib

  88. Codec ID : S_HDMV/PGS

  89. Codec ID/Info : Picture based subtitle format used on BDs/HD-DVDs

  90. Duration : 1 h 53 min

  91. Bit rate : 42.6 kb/s

  92. Count of elements : 3468

  93. Stream size : 34.5 MiB (0%)

  94. Title : CHS

  95. Language : Chinese

  96. Default : Yes

  97. Forced : No

  98. Original source medium : Blu-ray


  99. Text #2

  100. ID : 5

  101. ID in the original source medium : 4608 (0x1200)

  102. Format : PGS

  103. Muxing mode : zlib

  104. Codec ID : S_HDMV/PGS

  105. Codec ID/Info : Picture based subtitle format used on BDs/HD-DVDs

  106. Duration : 1 h 53 min

  107. Bit rate : 47.4 kb/s

  108. Count of elements : 3468

  109. Stream size : 38.4 MiB (1%)

  110. Title : CHT

  111. Language : Chinese

  112. Default : Yes

  113. Forced : No

  114. Original source medium : Blu-ray


  115. Text #3

  116. ID : 6

  117. ID in the original source medium : 4610 (0x1202)

  118. Format : PGS

  119. Muxing mode : zlib

  120. Codec ID : S_HDMV/PGS

  121. Codec ID/Info : Picture based subtitle format used on BDs/HD-DVDs

  122. Duration : 1 h 53 min

  123. Bit rate : 37.7 kb/s

  124. Count of elements : 3468

  125. Stream size : 30.6 MiB (0%)

  126. Language : English

  127. Default : No

  128. Forced : No

  129. Original source medium : Blu-ray


  130. Menu

  131. 00:00:00.000 : en:Chapter 01

  132. 00:02:45.791 : en:Chapter 02

  133. 00:08:39.083 : en:Chapter 03

  134. 00:15:56.458 : en:Chapter 04

  135. 00:20:37.958 : en:Chapter 05

  136. 00:26:07.208 : en:Chapter 06

  137. 00:32:54.583 : en:Chapter 07

  138. 00:39:23.500 : en:Chapter 08

  139. 00:45:06.583 : en:Chapter 09

  140. 00:50:18.833 : en:Chapter 10

  141. 00:58:54.375 : en:Chapter 11

  142. 01:02:23.458 : en:Chapter 12

  143. 01:08:53.833 : en:Chapter 13

  144. 01:15:10.250 : en:Chapter 14

  145. 01:20:14.583 : en:Chapter 15

  146. 01:26:44.500 : en:Chapter 16

  147. 01:34:35.750 : en:Chapter 17

  148. 01:41:48.375 : en:Chapter 18

  149. 01:45:57.458 : en:Chapter 19

  150. 01:51:47.000 : en:Chapter 20




复制代码



文件下载


除非特别注明,本文『游龙戏凤[国粤语音轨/中文字幕].Look.for.a.Star.2009.BluRay.1080p.x265.10bit.DDP7.1.MNHD-btbt9527.com 7.34GB』来源于互联网机器人自动抓取,非本站原创。 浮游电影网不对本文拥有版权,如有侵犯,请联系邮箱:fuyouu#yandex.com[#换成@]投诉。我们会在15个工作日内删除。 但烦请转载时请标明出处:“本文转载于『浮游电影网』,原文地址:https://www.fuyouu.com/19273.html

评论吧骚年!

发表你的见解   

昵称*

E-mail*(建议输入,以便收到博主回复的提示邮件)

验证码*

您可以使用eMule或eMule Mod(Windows)、aMule(Win、Linux、Mac)等软件下载eD2k链接。。
eMule收藏集(.emulecollection)文件是您选中的所有链接的列表文件。eMule可以直接下载它们。
按住SHIFT键选择可以选中多个选择框。
可用文件名和大小选择器来选择文件。
文件名选择器帮您根据文件名称或后缀来选择文件。不分大小写。
符号使用:
和:空格( )、+
不包含:-
或:|
转义:一对英文引号("");
匹配开头:^
匹配结尾:$
例如:
选中所有名称中包含有“eMule”或“0.49c”字眼,但不包含有“exe”字眼的:emule|0.49c -exe
选中所有名称的开头是“eMule”,结尾是“0.49c”的:^emule 0.49c$
选中所有名称中带有“eMule 0.49c”的(必须是“eMule 0.49c”,中间没有别的字符,不能是“eMule fake 0.49c”),需要转义:"emule 0.49c"
大小选择器帮您根据文件大小选择文件。