当前位置: 首页 >> 海外电影 >> 匿名者敬启[中文字幕].Anonymously.Yours.2021.1080p.NF.WEB-DL.DDP5.1.x264-btbt9527.com 5.29GB >> 正文

匿名者敬启[中文字幕].Anonymously.Yours.2021.1080p.NF.WEB-DL.DDP5.1.x264-btbt9527.com 5.29GB

2021年12月12日 19:26:09     电影发布:来源于网络     电影分类:海外电影     评论(0)    

匿名者敬启[中文字幕].Anonymously.Yours.2021.1080p.NF.WEB DL.DDP5.1.x264 btbt9527.com 5.29GB 爱情片 剧情片 海外电影  第1张

◎译 名 匿名者敬启 / Anonymously Yours

◎片 名 Anónima

◎年 代 2021

◎产 地 墨西哥

◎类 别 剧情 / 爱情

◎语 言 西班牙语

◎上映日期 2021-12-10(墨西哥)

◎IMDb链接 https://www.imdb.com/title/tt16088568/

◎豆瓣链接 https://movie.douban.com/subject/35683303/

◎片 长 100分钟

◎标 签 WK

◎简 介

意外短信促成了一段网上友谊,瓦莱和亚历克斯开始互生情愫,却不知道两人早已在现实生活中相遇

  1. ##### MediaInfo ######

  2. General

  3. Unique ID : 273839104648859597731843178741840954803 (0xCE037E3FA6C0549AC734648ECE4345B3)

  4. Complete name : [email protected].mkv

  5. Format : Matroska

  6. Format version : Version 4

  7. File size : 5.29 GiB

  8. Duration : 1 h 41 min

  9. Overall bit rate mode : Variable

  10. Overall bit rate : 7 476 kb/s

  11. Encoded date : UTC 2021-12-11 14:53:52

  12. Writing application : mkvmerge v62.0.0 ('Apollo') 64-bit

  13. Writing library : libebml v1.4.2 + libmatroska v1.6.4


  14. Video

  15. ID : 1

  16. Format : AVC

  17. Format/Info : Advanced Video Codec

  18. Format profile : [email protected]

  19. Format settings : CABAC / 3 Ref Frames

  20. Format settings, CABAC : Yes

  21. Format settings, Reference frames : 3 frames

  22. Codec ID : V_MPEG4/ISO/AVC

  23. Duration : 1 h 41 min

  24. Bit rate mode : Variable

  25. Bit rate : 2 936 kb/s

  26. Maximum bit rate : 5 475 kb/s

  27. Width : 1 920 pixels

  28. Height : 1 080 pixels

  29. Display aspect ratio : 16:9

  30. Frame rate mode : Constant

  31. Frame rate : 23.976 (24000/1001/53354) FPS

  32. Color space : YUV

  33. Chroma subsampling : 4:2:0

  34. Bit depth : 8 bits

  35. Scan type : Progressive

  36. Bits/(Pixel*Frame) : 0.059

  37. Stream size : 2.11 GiB (40%)

  38. Writing library : x264 core 148 r2724 dbe0335

  39. Encoding settings : cabac=1 / ref=3 / deblock=1:0:0 / analyse=0x1:0x111 / me=umh / subme=10 / psy=1 / psy_rd=1.00:0.00 / mixed_ref=1 / me_range=24 / chroma_me=1 / trellis=2 / 8x8dct=0 / cqm=0 / deadzone=21,11 / fast_pskip=1 / chroma_qp_offset=-2 / threads=6 / lookahead_threads=1 / sliced_threads=0 / nr=0 / decimate=1 / interlaced=0 / NTMzNTQ= / bluray_compat=0 / stitchable=1 / constrained_intra=0 / bframes=2 / b_pyramid=0 / b_adapt=2 / b_bias=0 / direct=3 / weightb=1 / open_gop=0 / weightp=2 / keyint=250 / keyint_min=23 / scenecut=0 / intra_refresh=0 / rc_lookahead=48 / rc=2pass / mbtree=1 / bitrate=2936 / ratetol=1.0 / qcomp=0.50 / qpmin=6 / qpmax=51 / qpstep=4 / cplxblur=20.0 / qblur=0.5 / vbv_maxrate=5475 / vbv_bufsize=7300 / nal_hrd=vbr / filler=0 / NTMzNTQ=LmsMAP37EqsCpk / ip_ratio=1.40 / aq=1:1.00

  40. Default : Yes

  41. Forced : No


  42. Audio #1

  43. ID : 2

  44. Format : E-AC-3

  45. Format/Info : Enhanced AC-3

  46. Commercial name : Dolby Digital Plus

  47. Codec ID : A_EAC3

  48. Duration : 1 h 41 min

  49. Bit rate mode : Constant

  50. Bit rate : 640 kb/s

  51. Channel(s) : 6 channels

  52. Channel layout : L R C LFE Ls Rs

  53. Sampling rate : 48.0 kHz

  54. Frame rate : 31.250 FPS (1536 SPF)

  55. Compression mode : Lossy

  56. Stream size : 464 MiB (9%)

  57. Title : Spanish

  58. Language : Spanish

  59. Service kind : Complete Main

  60. Default : Yes

  61. Forced : No


  62. Audio #2

  63. ID : 3

  64. Format : E-AC-3

  65. Format/Info : Enhanced AC-3

  66. Commercial name : Dolby Digital Plus

  67. Codec ID : A_EAC3

  68. Duration : 1 h 41 min

  69. Bit rate mode : Constant

  70. Bit rate : 640 kb/s

  71. Channel(s) : 6 channels

  72. Channel layout : L R C LFE Ls Rs

  73. Sampling rate : 48.0 kHz

  74. Frame rate : 31.250 FPS (1536 SPF)

  75. Compression mode : Lossy

  76. Stream size : 464 MiB (9%)

  77. Title : English

  78. Language : English

  79. Service kind : Complete Main

  80. Default : No

  81. Forced : No


  82. Audio #3

  83. ID : 4

  84. Format : E-AC-3

  85. Format/Info : Enhanced AC-3

  86. Commercial name : Dolby Digital Plus

  87. Codec ID : A_EAC3

  88. Duration : 1 h 41 min

  89. Bit rate mode : Constant

  90. Bit rate : 640 kb/s

  91. Channel(s) : 6 channels

  92. Channel layout : L R C LFE Ls Rs

  93. Sampling rate : 48.0 kHz

  94. Frame rate : 31.250 FPS (1536 SPF)

  95. Compression mode : Lossy

  96. Stream size : 464 MiB (9%)

  97. Title : French

  98. Language : French

  99. Service kind : Complete Main

  100. Default : No

  101. Forced : No


  102. Audio #4

  103. ID : 5

  104. Format : E-AC-3

  105. Format/Info : Enhanced AC-3

  106. Commercial name : Dolby Digital Plus

  107. Codec ID : A_EAC3

  108. Duration : 1 h 41 min

  109. Bit rate mode : Constant

  110. Bit rate : 640 kb/s

  111. Channel(s) : 6 channels

  112. Channel layout : L R C LFE Ls Rs

  113. Sampling rate : 48.0 kHz

  114. Frame rate : 31.250 FPS (1536 SPF)

  115. Compression mode : Lossy

  116. Stream size : 464 MiB (9%)

  117. Title : German

  118. Language : German

  119. Service kind : Complete Main

  120. Default : No

  121. Forced : No


  122. Audio #5

  123. ID : 6

  124. Format : E-AC-3

  125. Format/Info : Enhanced AC-3

  126. Commercial name : Dolby Digital Plus

  127. Codec ID : A_EAC3

  128. Duration : 1 h 41 min

  129. Bit rate mode : Constant

  130. Bit rate : 640 kb/s

  131. Channel(s) : 6 channels

  132. Channel layout : L R C LFE Ls Rs

  133. Sampling rate : 48.0 kHz

  134. Frame rate : 31.250 FPS (1536 SPF)

  135. Compression mode : Lossy

  136. Stream size : 464 MiB (9%)

  137. Title : Polish

  138. Language : Polish

  139. Service kind : Complete Main

  140. Default : No

  141. Forced : No


  142. Audio #6

  143. ID : 7

  144. Format : E-AC-3

  145. Format/Info : Enhanced AC-3

  146. Commercial name : Dolby Digital Plus

  147. Codec ID : A_EAC3

  148. Duration : 1 h 41 min

  149. Bit rate mode : Constant

  150. Bit rate : 640 kb/s

  151. Channel(s) : 6 channels

  152. Channel layout : L R C LFE Ls Rs

  153. Sampling rate : 48.0 kHz

  154. Frame rate : 31.250 FPS (1536 SPF)

  155. Compression mode : Lossy

  156. Stream size : 464 MiB (9%)

  157. Title : Brazilian Portuguese

  158. Language : Portuguese

  159. Service kind : Complete Main

  160. Default : No

  161. Forced : No


  162. Audio #7

  163. ID : 8

  164. Format : E-AC-3

  165. Format/Info : Enhanced AC-3

  166. Commercial name : Dolby Digital Plus

  167. Codec ID : A_EAC3

  168. Duration : 1 h 41 min

  169. Bit rate mode : Constant

  170. Bit rate : 640 kb/s

  171. Channel(s) : 6 channels

  172. Channel layout : L R C LFE Ls Rs

  173. Sampling rate : 48.0 kHz

  174. Frame rate : 31.250 FPS (1536 SPF)

  175. Compression mode : Lossy

  176. Stream size : 464 MiB (9%)

  177. Title : Turkish

  178. Language : Turkish

  179. Service kind : Complete Main

  180. Default : No

  181. Forced : No


  182. Text #1

  183. ID : 9

  184. Format : UTF-8

  185. Codec ID : S_TEXT/UTF8

  186. Codec ID/Info : UTF-8 Plain Text

  187. Duration : 1 h 37 min

  188. Bit rate : 61 b/s

  189. Count of elements : 1639

  190. Stream size : 43.9 KiB (0%)

  191. Title : English

  192. Language : English

  193. Default : Yes

  194. Forced : No


  195. Text #2

  196. ID : 10

  197. Format : UTF-8

  198. Codec ID : S_TEXT/UTF8

  199. Codec ID/Info : UTF-8 Plain Text

  200. Duration : 1 h 40 min

  201. Bit rate : 98 b/s

  202. Count of elements : 1641

  203. Stream size : 72.8 KiB (0%)

  204. Title : Arabic

  205. Language : Arabic

  206. Default : No

  207. Forced : No


  208. Text #3

  209. ID : 11

  210. Format : UTF-8

  211. Codec ID : S_TEXT/UTF8

  212. Codec ID/Info : UTF-8 Plain Text

  213. Duration : 1 h 40 min

  214. Bit rate : 63 b/s

  215. Count of elements : 1656

  216. Stream size : 46.9 KiB (0%)

  217. Title : Chinese Simplified

  218. Language : Chinese

  219. Default : No

  220. Forced : No


  221. Text #4

  222. ID : 12

  223. Format : UTF-8

  224. Codec ID : S_TEXT/UTF8

  225. Codec ID/Info : UTF-8 Plain Text

  226. Duration : 1 h 40 min

  227. Bit rate : 58 b/s

  228. Count of elements : 1648

  229. Stream size : 42.9 KiB (0%)

  230. Title : Chinese Traditional

  231. Language : Chinese

  232. Default : No

  233. Forced : No


  234. Text #5

  235. ID : 13

  236. Format : UTF-8

  237. Codec ID : S_TEXT/UTF8

  238. Codec ID/Info : UTF-8 Plain Text

  239. Duration : 1 h 40 min

  240. Bit rate : 53 b/s

  241. Count of elements : 1452

  242. Stream size : 39.2 KiB (0%)

  243. Title : Croatian

  244. Language : Croatian

  245. Default : No

  246. Forced : No


  247. Text #6

  248. ID : 14

  249. Format : UTF-8

  250. Codec ID : S_TEXT/UTF8

  251. Codec ID/Info : UTF-8 Plain Text

  252. Duration : 1 h 40 min

  253. Bit rate : 56 b/s

  254. Count of elements : 1642

  255. Stream size : 41.9 KiB (0%)

  256. Title : Czech

  257. Language : Czech

  258. Default : No

  259. Forced : No


  260. Text #7

  261. ID : 15

  262. Format : UTF-8

  263. Codec ID : S_TEXT/UTF8

  264. Codec ID/Info : UTF-8 Plain Text

  265. Duration : 1 h 40 min

  266. Bit rate : 56 b/s

  267. Count of elements : 1464

  268. Stream size : 41.4 KiB (0%)

  269. Title : Danish

  270. Language : Danish

  271. Default : No

  272. Forced : No


  273. Text #8

  274. ID : 16

  275. Format : UTF-8

  276. Codec ID : S_TEXT/UTF8

  277. Codec ID/Info : UTF-8 Plain Text

  278. Duration : 1 h 37 min

  279. Bit rate : 54 b/s

  280. Count of elements : 1464

  281. Stream size : 38.7 KiB (0%)

  282. Title : Dutch

  283. Language : Dutch

  284. Default : No

  285. Forced : No


  286. Text #9

  287. ID : 17

  288. Format : UTF-8

  289. Codec ID : S_TEXT/UTF8

  290. Codec ID/Info : UTF-8 Plain Text

  291. Duration : 1 h 40 min

  292. Bit rate : 59 b/s

  293. Count of elements : 1623

  294. Stream size : 43.6 KiB (0%)

  295. Title : Finnish

  296. Language : Finnish

  297. Default : No

  298. Forced : No


  299. Text #10

  300. ID : 18

  301. Format : UTF-8

  302. Codec ID : S_TEXT/UTF8

  303. Codec ID/Info : UTF-8 Plain Text

  304. Duration : 1 h 40 min

  305. Bit rate : 60 b/s

  306. Count of elements : 1570

  307. Stream size : 44.8 KiB (0%)

  308. Title : French

  309. Language : French

  310. Default : No

  311. Forced : No


  312. Text #11

  313. ID : 19

  314. Format : UTF-8

  315. Codec ID : S_TEXT/UTF8

  316. Codec ID/Info : UTF-8 Plain Text

  317. Duration : 1 h 40 min

  318. Bit rate : 62 b/s

  319. Count of elements : 1525

  320. Stream size : 46.0 KiB (0%)

  321. Title : German

  322. Language : German

  323. Default : No

  324. Forced : No


  325. Text #12

  326. ID : 20

  327. Format : UTF-8

  328. Codec ID : S_TEXT/UTF8

  329. Codec ID/Info : UTF-8 Plain Text

  330. Duration : 1 h 40 min

  331. Bit rate : 95 b/s

  332. Count of elements : 1547

  333. Stream size : 70.3 KiB (0%)

  334. Title : Greek

  335. Language : Greek

  336. Default : No

  337. Forced : No


  338. Text #13

  339. ID : 21

  340. Format : UTF-8

  341. Codec ID : S_TEXT/UTF8

  342. Codec ID/Info : UTF-8 Plain Text

  343. Duration : 1 h 40 min

  344. Bit rate : 95 b/s

  345. Count of elements : 1497

  346. Stream size : 70.1 KiB (0%)

  347. Title : Hebrew

  348. Language : Hebrew

  349. Default : No

  350. Forced : No


  351. Text #14

  352. ID : 22

  353. Format : UTF-8

  354. Codec ID : S_TEXT/UTF8

  355. Codec ID/Info : UTF-8 Plain Text

  356. Duration : 1 h 40 min

  357. Bit rate : 55 b/s

  358. Count of elements : 1533

  359. Stream size : 40.9 KiB (0%)

  360. Title : Hungarian

  361. Language : Hungarian

  362. Default : No

  363. Forced : No


  364. Text #15

  365. ID : 23

  366. Format : UTF-8

  367. Codec ID : S_TEXT/UTF8

  368. Codec ID/Info : UTF-8 Plain Text

  369. Duration : 1 h 37 min

  370. Bit rate : 62 b/s

  371. Count of elements : 1598

  372. Stream size : 44.3 KiB (0%)

  373. Title : Indonesian

  374. Language : Indonesian

  375. Default : No

  376. Forced : No


  377. Text #16

  378. ID : 24

  379. Format : UTF-8

  380. Codec ID : S_TEXT/UTF8

  381. Codec ID/Info : UTF-8 Plain Text

  382. Duration : 1 h 40 min

  383. Bit rate : 54 b/s

  384. Count of elements : 1516

  385. Stream size : 40.3 KiB (0%)

  386. Title : Italian

  387. Language : Italian

  388. Default : No

  389. Forced : No


  390. Text #17

  391. ID : 25

  392. Format : UTF-8

  393. Codec ID : S_TEXT/UTF8

  394. Codec ID/Info : UTF-8 Plain Text

  395. Duration : 1 h 40 min

  396. Bit rate : 49 b/s

  397. Count of elements : 1430

  398. Stream size : 36.2 KiB (0%)

  399. Title : Japanese

  400. Language : Japanese

  401. Default : No

  402. Forced : No


  403. Text #18

  404. ID : 26

  405. Format : UTF-8

  406. Codec ID : S_TEXT/UTF8

  407. Codec ID/Info : UTF-8 Plain Text

  408. Duration : 1 h 40 min

  409. Bit rate : 73 b/s

  410. Count of elements : 1653

  411. Stream size : 54.4 KiB (0%)

  412. Title : Korean

  413. Language : Korean

  414. Default : No

  415. Forced : No


  416. Text #19

  417. ID : 27

  418. Format : UTF-8

  419. Codec ID : S_TEXT/UTF8

  420. Codec ID/Info : UTF-8 Plain Text

  421. Duration : 1 h 40 min

  422. Bit rate : 55 b/s

  423. Count of elements : 1515

  424. Stream size : 41.0 KiB (0%)

  425. Title : Malay

  426. Language : Malay

  427. Default : No

  428. Forced : No


  429. Text #20

  430. ID : 28

  431. Format : UTF-8

  432. Codec ID : S_TEXT/UTF8

  433. Codec ID/Info : UTF-8 Plain Text

  434. Duration : 1 h 40 min

  435. Bit rate : 55 b/s

  436. Count of elements : 1556

  437. Stream size : 41.0 KiB (0%)

  438. Title : Norwegian Bokmal

  439. Language : Norwegian Bokmal

  440. Default : No

  441. Forced : No


  442. Text #21

  443. ID : 29

  444. Format : UTF-8

  445. Codec ID : S_TEXT/UTF8

  446. Codec ID/Info : UTF-8 Plain Text

  447. Duration : 1 h 40 min

  448. Bit rate : 55 b/s

  449. Count of elements : 1606

  450. Stream size : 41.2 KiB (0%)

  451. Title : Polish

  452. Language : Polish

  453. Default : No

  454. Forced : No


  455. Text #22

  456. ID : 30

  457. Format : UTF-8

  458. Codec ID : S_TEXT/UTF8

  459. Codec ID/Info : UTF-8 Plain Text

  460. Duration : 1 h 40 min

  461. Bit rate : 57 b/s

  462. Count of elements : 1513

  463. Stream size : 42.1 KiB (0%)

  464. Title : Brazilian Portuguese

  465. Language : Portuguese

  466. Default : No

  467. Forced : No


  468. Text #23

  469. ID : 31

  470. Format : UTF-8

  471. Codec ID : S_TEXT/UTF8

  472. Codec ID/Info : UTF-8 Plain Text

  473. Duration : 1 h 40 min

  474. Bit rate : 66 b/s

  475. Count of elements : 1607

  476. Stream size : 48.6 KiB (0%)

  477. Title : Romanian

  478. Language : Romanian

  479. Default : No

  480. Forced : No


  481. Text #24

  482. ID : 32

  483. Format : UTF-8

  484. Codec ID : S_TEXT/UTF8

  485. Codec ID/Info : UTF-8 Plain Text

  486. Duration : 1 h 40 min

  487. Bit rate : 96 b/s

  488. Count of elements : 1552

  489. Stream size : 70.7 KiB (0%)

  490. Title : Russian

  491. Language : Russian

  492. Default : No

  493. Forced : No


  494. Text #25

  495. ID : 33

  496. Format : UTF-8

  497. Codec ID : S_TEXT/UTF8

  498. Codec ID/Info : UTF-8 Plain Text

  499. Duration : 1 h 40 min

  500. Bit rate : 104 b/s

  501. Count of elements : 1886

  502. Stream size : 76.7 KiB (0%)

  503. Title : Spanish

  504. Language : Spanish

  505. Default : No

  506. Forced : No


  507. Text #26

  508. ID : 34

  509. Format : UTF-8

  510. Codec ID : S_TEXT/UTF8

  511. Codec ID/Info : UTF-8 Plain Text

  512. Duration : 1 h 40 min

  513. Bit rate : 61 b/s

  514. Count of elements : 1241

  515. Stream size : 45.4 KiB (0%)

  516. Title : Swedish

  517. Language : Swedish

  518. Default : No

  519. Forced : No


  520. Text #27

  521. ID : 35

  522. Format : UTF-8

  523. Codec ID : S_TEXT/UTF8

  524. Codec ID/Info : UTF-8 Plain Text

  525. Duration : 1 h 40 min

  526. Bit rate : 153 b/s

  527. Count of elements : 1653

  528. Stream size : 113 KiB (0%)

  529. Title : Thai

  530. Language : Thai

  531. Default : No

  532. Forced : No


  533. Text #28

  534. ID : 36

  535. Format : UTF-8

  536. Codec ID : S_TEXT/UTF8

  537. Codec ID/Info : UTF-8 Plain Text

  538. Duration : 1 h 40 min

  539. Bit rate : 61 b/s

  540. Count of elements : 1464

  541. Stream size : 44.9 KiB (0%)

  542. Title : Turkish

  543. Language : Turkish

  544. Default : No

  545. Forced : No


  546. Text #29

  547. ID : 37

  548. Format : UTF-8

  549. Codec ID : S_TEXT/UTF8

  550. Codec ID/Info : UTF-8 Plain Text

  551. Duration : 1 h 40 min

  552. Bit rate : 89 b/s

  553. Count of elements : 1650

  554. Stream size : 66.2 KiB (0%)

  555. Title : Ukrainian

  556. Language : Ukrainian

  557. Default : No

  558. Forced : No


  559. Text #30

  560. ID : 38

  561. Format : UTF-8

  562. Codec ID : S_TEXT/UTF8

  563. Codec ID/Info : UTF-8 Plain Text

  564. Duration : 1 h 40 min

  565. Bit rate : 85 b/s

  566. Count of elements : 1394

  567. Stream size : 62.6 KiB (0%)

  568. Title : Vietnamese

  569. Language : Vietnamese

  570. Default : No

  571. Forced : No




复制代码



文件下载


除非特别注明,本文『匿名者敬启[中文字幕].Anonymously.Yours.2021.1080p.NF.WEB-DL.DDP5.1.x264-btbt9527.com 5.29GB』来源于互联网机器人自动抓取,非本站原创。 浮游电影网不对本文拥有版权,如有侵犯,请联系邮箱:fuyouu#yandex.com[#换成@]投诉。我们会在15个工作日内删除。 但烦请转载时请标明出处:“本文转载于『浮游电影网』,原文地址:https://www.fuyouu.com/19270.html

评论吧骚年!

发表你的见解   

昵称*

E-mail*(建议输入,以便收到博主回复的提示邮件)

验证码*

您可以使用eMule或eMule Mod(Windows)、aMule(Win、Linux、Mac)等软件下载eD2k链接。。
eMule收藏集(.emulecollection)文件是您选中的所有链接的列表文件。eMule可以直接下载它们。
按住SHIFT键选择可以选中多个选择框。
可用文件名和大小选择器来选择文件。
文件名选择器帮您根据文件名称或后缀来选择文件。不分大小写。
符号使用:
和:空格( )、+
不包含:-
或:|
转义:一对英文引号("");
匹配开头:^
匹配结尾:$
例如:
选中所有名称中包含有“eMule”或“0.49c”字眼,但不包含有“exe”字眼的:emule|0.49c -exe
选中所有名称的开头是“eMule”,结尾是“0.49c”的:^emule 0.49c$
选中所有名称中带有“eMule 0.49c”的(必须是“eMule 0.49c”,中间没有别的字符,不能是“eMule fake 0.49c”),需要转义:"emule 0.49c"
大小选择器帮您根据文件大小选择文件。