当前位置: 首页 >> 国产电影 >> 天启·惊蛰变[国语配音/中文字幕].Tian.Qi.Jing.Zhe.Bian.2021.2160p.WEB-DL.H265.AAC-btbt9527.com 1.27GB >> 正文

天启·惊蛰变[国语配音/中文字幕].Tian.Qi.Jing.Zhe.Bian.2021.2160p.WEB-DL.H265.AAC-btbt9527.com 1.27GB

2021年12月12日 12:54:30     电影发布:来源于网络     电影分类:国产电影     评论(0)    

天启·惊蛰变[国语配音/中文字幕].Tian.Qi.Jing.Zhe.Bian.2021.2160p.WEB DL.H265.AAC btbt9527.com 1.27GB 古装片 科幻片 惊悚片 国产电影  第1张

◎译 名 天启·惊蛰变

◎年 代 2021

◎产 地 中国大陆

◎类 别 科幻 / 惊悚 / 古装

◎语 言 汉语普通话

◎上映日期 2021-12-11(中国大陆网络)

◎IMDb链接 https://www.imdb.com/title//

◎豆瓣链接 https://movie.douban.com/subject/35208521/

◎导 演 张博维 Anthony Zhang (id:1386497)

◎演 员 杜奕衡 John Do (id:1275965)

潘时七 Sookie Pan (id:1315637)

韩栋 Dong Han (id:1315429)

朱梓玥 Ziyue Zhu (id:1445099)

张艺泷 Yilong Zhang (id:1342291)

李昶 Chang Li (id:1315676)

张艺骞 Yiqian Zhang (id:1352968)

岳冬峰 Dongfeng Yue (id:1355556)

许敏 Min Xu (id:1403615)

马晨焱 Chenyan Ma (id:1444746)

龚玥菲 Yuefei Gong (id:1342662)

◎标 签 奇幻 / 电影 / 科幻 / 剧情 / 大陆 / 中国 / 小说改编 / 动作

◎简 介

本片改编自安徒生同名小说。明朝天启年间,天降陨石,地生异变,村民被怪虫寄生后成为虫奴,受声音吸引而发狂袭人,身为红铺司要职,面对古城怪象,火甲官左连山为了救人冲入重围,一边是自己唯一的女儿桑桑,一边是随时丧命的众多村民,他陷入了救百姓还是救女儿的艰难抉择之中。

  1. ##### MediaInfo ######

  2. General

  3. Complete name : 天启·惊蛰变[email protected]mp4

  4. Format : MPEG-4

  5. Format profile : Base Media

  6. Codec ID : isom (isom/iso2/mp41)

  7. File size : 1.27 GiB

  8. Duration : 1 h 13 min

  9. Overall bit rate : 2 467 kb/s

  10. Writing application : Lavf58.17.103


  11. Video

  12. ID : 1

  13. Format : HEVC

  14. Format/Info : High Efficiency Video Coding

  15. Format profile : [email protected]@Main

  16. Codec ID : hev1

  17. Codec ID/Info : High Efficiency Video Coding

  18. Duration : 1 h 13 min

  19. Bit rate : 2 334 kb/s

  20. Width : 3 840 pixels

  21. Height : 1 610 pixels

  22. Display aspect ratio : 2.40:1

  23. Frame rate mode : Variable

  24. Frame rate : 24.000 FPS

  25. Minimum frame rate : 23.994 FPS

  26. Maximum frame rate : 24.006 FPS

  27. Color space : YUV

  28. Chroma subsampling : 4:2:0

  29. Bit depth : 8 bits

  30. Bits/(Pixel*Frame) : 0.016

  31. Stream size : 1.20 GiB (95%)

  32. Color range : Limited

  33. Color primaries : BT.709

  34. Transfer characteristics : BT.709

  35. Matrix coefficients : BT.709

  36. Codec configuration box : hvcC


  37. Audio

  38. ID : 2

  39. Format : AAC LC

  40. Format/Info : Advanced Audio Codec Low Complexity

  41. Codec ID : mp4a-40-2

  42. Duration : 1 h 13 min

  43. Bit rate mode : Constant

  44. Bit rate : 125 kb/s

  45. Channel(s) : 2 channels

  46. Channel layout : L R

  47. Sampling rate : 48.0 kHz

  48. Frame rate : 46.875 FPS (1024 SPF)

  49. Compression mode : Lossy

  50. Stream size : 65.9 MiB (5%)

  51. Default : Yes

  52. Alternate group : 1




复制代码


文件下载


除非特别注明,本文『天启·惊蛰变[国语配音/中文字幕].Tian.Qi.Jing.Zhe.Bian.2021.2160p.WEB-DL.H265.AAC-btbt9527.com 1.27GB』来源于互联网机器人自动抓取,非本站原创。 浮游电影网不对本文拥有版权,如有侵犯,请联系邮箱:fuyouu#yandex.com[#换成@]投诉。我们会在15个工作日内删除。 但烦请转载时请标明出处:“本文转载于『浮游电影网』,原文地址:https://www.fuyouu.com/19266.html

评论吧骚年!

发表你的见解   

昵称*

E-mail*(建议输入,以便收到博主回复的提示邮件)

验证码*

您可以使用eMule或eMule Mod(Windows)、aMule(Win、Linux、Mac)等软件下载eD2k链接。。
eMule收藏集(.emulecollection)文件是您选中的所有链接的列表文件。eMule可以直接下载它们。
按住SHIFT键选择可以选中多个选择框。
可用文件名和大小选择器来选择文件。
文件名选择器帮您根据文件名称或后缀来选择文件。不分大小写。
符号使用:
和:空格( )、+
不包含:-
或:|
转义:一对英文引号("");
匹配开头:^
匹配结尾:$
例如:
选中所有名称中包含有“eMule”或“0.49c”字眼,但不包含有“exe”字眼的:emule|0.49c -exe
选中所有名称的开头是“eMule”,结尾是“0.49c”的:^emule 0.49c$
选中所有名称中带有“eMule 0.49c”的(必须是“eMule 0.49c”,中间没有别的字符,不能是“eMule fake 0.49c”),需要转义:"emule 0.49c"
大小选择器帮您根据文件大小选择文件。