当前位置: 首页 >> 海外电影 >> 卓娅[中文字幕].Zoya.2021.1080p.WEB-DL.AAC2.0.H.264-btbt9527.com 2.71GB >> 正文

卓娅[中文字幕].Zoya.2021.1080p.WEB-DL.AAC2.0.H.264-btbt9527.com 2.71GB

2021年12月12日 12:52:12     电影发布:来源于网络     电影分类:海外电影     评论(0)    

卓娅[中文字幕].Zoya.2021.1080p.WEB DL.AAC2.0.H.264 btbt9527.com 2.71GB 战争片 剧情片 海外电影  第1张

◎译 名 卓娅 / Zoya

◎片 名 Зоя

◎年 代 2021

◎产 地 俄罗斯

◎类 别 剧情 / 战争

◎语 言 俄语

◎上映日期 2021-01-28(俄罗斯)

◎IMDb链接 https://www.imdb.com/title/tt13946146/

◎豆瓣链接 https://movie.douban.com/subject/35359401/

◎片 长 105分钟

◎导 演 列昂尼德·普利亚斯金 Leonid Plyaskin (id:1451554)

马克西姆·布里乌斯 Maksim Brius (id:1451559)

◎编 剧 列昂尼德·普利亚斯金 Leonid Plyaskin (id:1451554)

◎演 员 让·马克·伯克霍尔兹 Jean-Marc Birkholz (id:1356137)

阿纳斯塔西娅·米希纳 Anastasia Mishina (id:1451551)

明道加斯·帕皮尼吉斯 Mindaugas Papinigis (id:1451552)

◎标 签 二战 / 战争 / 俄罗斯 / 卓娅 / 电影 / 苏联 / 真实事件改编 / 俄罗斯电影

◎简 介

1941年秋天,昨天的女学生卓娅自愿参加了一次破坏活动,不过她所在的游击队被伏击,卓娅不幸被俘。被俘后,德国人的审讯和酷刑没有让她说出任何可能干扰其他小组任务的事情,纳粹分子甚至都没能得到她的真实姓名。她的牺牲没有白费,其壮举激励了无数人的心,帮助我们的士兵攻克了柏林。

  1. ##### MediaInfo ######

  2. General

  3. Unique ID : 178125184730584504361526982532450204779 (0x8601A9A781F61A28AB9A31DC688BBC6B)

  4. Complete name : [email protected]

  5. Format : Matroska

  6. Format version : Version 4

  7. File size : 2.71 GiB

  8. Duration : 1 h 42 min

  9. Overall bit rate : 3 770 kb/s

  10. Encoded date : UTC 2021-12-10 13:12:32

  11. Writing application : mkvmerge v56.1.0 ('My Friend') 64-bit

  12. Writing library : libebml v1.4.2 + libmatroska v1.6.4


  13. Video

  14. ID : 1

  15. Format : AVC

  16. Format/Info : Advanced Video Codec

  17. Format profile : [email protected]

  18. Format settings : CABAC / 1 Ref Frames

  19. Format settings, CABAC : Yes

  20. Format settings, Reference frames : 1 frame

  21. Format settings, GOP : M=1, N=60

  22. Codec ID : V_MPEG4/ISO/AVC

  23. Duration : 1 h 42 min

  24. Bit rate mode : Constant

  25. Bit rate : 3 642 kb/s

  26. Nominal bit rate : 4 000 kb/s

  27. Width : 1 920 pixels

  28. Height : 1 080 pixels

  29. Display aspect ratio : 16:9

  30. Frame rate mode : Constant

  31. Frame rate : 29.970 (30000/1001/53354) FPS

  32. Color space : YUV

  33. Chroma subsampling : 4:2:0

  34. Bit depth : 8 bits

  35. Scan type : Progressive

  36. Bits/(Pixel*Frame) : 0.059

  37. Stream size : 2.61 GiB (97%)

  38. Default : Yes

  39. Forced : No


  40. Audio

  41. ID : 2

  42. Format : AAC LC

  43. Format/Info : Advanced Audio Codec Low Complexity

  44. Codec ID : A_AAC-2

  45. Duration : 1 h 42 min

  46. Bit rate : 125 kb/s

  47. Channel(s) : 2 channels

  48. Channel layout : L R

  49. Sampling rate : 48.0 kHz

  50. Frame rate : 46.875 FPS (1024 SPF)

  51. Compression mode : Lossy

  52. Stream size : 92.2 MiB (3%)

  53. Language : Russian

  54. Default : Yes

  55. Forced : No


  56. Text #1

  57. ID : 3

  58. Format : UTF-8

  59. Codec ID : S_TEXT/UTF8

  60. Codec ID/Info : UTF-8 Plain Text

  61. Duration : 1 h 36 min

  62. Bit rate : 33 b/s

  63. Count of elements : 962

  64. Stream size : 23.8 KiB (0%)

  65. Title : Chinese Simplified

  66. Language : Chinese

  67. Default : Yes

  68. Forced : No


  69. Text #2

  70. ID : 4

  71. Format : UTF-8

  72. Codec ID : S_TEXT/UTF8

  73. Codec ID/Info : UTF-8 Plain Text

  74. Duration : 1 h 36 min

  75. Bit rate : 33 b/s

  76. Count of elements : 962

  77. Stream size : 23.8 KiB (0%)

  78. Title : Chinese Traditional

  79. Language : Chinese

  80. Default : No

  81. Forced : No




复制代码


文件下载


除非特别注明,本文『卓娅[中文字幕].Zoya.2021.1080p.WEB-DL.AAC2.0.H.264-btbt9527.com 2.71GB』来源于互联网机器人自动抓取,非本站原创。 浮游电影网不对本文拥有版权,如有侵犯,请联系邮箱:fuyouu#yandex.com[#换成@]投诉。我们会在15个工作日内删除。 但烦请转载时请标明出处:“本文转载于『浮游电影网』,原文地址:https://www.fuyouu.com/19265.html

评论吧骚年!

发表你的见解   

昵称*

E-mail*(建议输入,以便收到博主回复的提示邮件)

验证码*

您可以使用eMule或eMule Mod(Windows)、aMule(Win、Linux、Mac)等软件下载eD2k链接。。
eMule收藏集(.emulecollection)文件是您选中的所有链接的列表文件。eMule可以直接下载它们。
按住SHIFT键选择可以选中多个选择框。
可用文件名和大小选择器来选择文件。
文件名选择器帮您根据文件名称或后缀来选择文件。不分大小写。
符号使用:
和:空格( )、+
不包含:-
或:|
转义:一对英文引号("");
匹配开头:^
匹配结尾:$
例如:
选中所有名称中包含有“eMule”或“0.49c”字眼,但不包含有“exe”字眼的:emule|0.49c -exe
选中所有名称的开头是“eMule”,结尾是“0.49c”的:^emule 0.49c$
选中所有名称中带有“eMule 0.49c”的(必须是“eMule 0.49c”,中间没有别的字符,不能是“eMule fake 0.49c”),需要转义:"emule 0.49c"
大小选择器帮您根据文件大小选择文件。