当前位置: 首页 >> 欧美电影 >> 不可饶恕[中文字幕].The.Unforgivable.2021.1080p.NF.WEB-DL.DDP5.1.x264-btbt9527.com 10.54GB >> 正文

不可饶恕[中文字幕].The.Unforgivable.2021.1080p.NF.WEB-DL.DDP5.1.x264-btbt9527.com 10.54GB

2021年12月11日 10:52:33     电影发布:来源于网络     电影分类:欧美电影     评论(0)    

不可饶恕[中文字幕].The.Unforgivable.2021.1080p.NF.WEB DL.DDP5.1.x264 btbt9527.com 10.54GB 剧情片 欧美电影  第1张

◎译 名 不可饶恕 / 无赦

◎片 名 The Unforgivable

◎年 代 2021

◎产 地 英国 / 德国 / 美国

◎类 别 剧情

◎语 言 英语

◎上映日期 2021-11-24(美国) / 2021-12-10(美国网络)

◎IMDb链接 https://www.imdb.com/title/tt11233960/

◎豆瓣链接 https://movie.douban.com/subject/34881718/

◎片 长 113分钟

◎导 演 诺拉·芬沙伊德 Nora Fingscheidt (id:1408692)

◎编 剧 彼得·克莱格 Peter Craig (id:1041402)

希拉里·塞茨 Hillary Seitz (id:1297174)

柯特妮·迈尔斯 Courtenay Miles (id:1421835)

萨利·温莱特 Sally Wainwright (id:1300267)

克里斯托弗·麦奎里 Christopher McQuarrie (id:1276314)

◎演 员 桑德拉·布洛克 Sandra Bullock (id:1022003)

乔·博恩瑟 Jon Bernthal (id:1049679)

文森特·多诺费奥 Vincent D'Onofrio (id:1010546)

维奥拉·戴维斯 Viola Davis (id:1022676)

理查德·托马斯 Richard Thomas (id:1019094)

艾斯琳·弗兰乔茜 Aisling Franciosi (id:1354532)

W·厄尔·布朗 W. Earl Brown (id:1049772)

杰西卡·麦丽奥德 Jessica McLeod (id:1005322)

汤姆·盖里 Tom Guiry (id:1027220)

琳达·伊蒙 Linda Emond (id:1089156)

罗布·摩根 Rob Morgan (id:1360285)

艾伦·坡尔 Aaron Pearl (id:1048251)

帕蒂·基姆 Patti Kim (id:1231351)

艾玛·尼尔森 Emma Nelson (id:1407067)

托比·哈格雷夫 Toby Hargrave (id:1227493)

威尔·普伦 Will Pullen (id:1379300)

威廉·贝勒 William Belleau (id:1377085)

西蒙·钱 Simon Chin (id:1194078)

Tom MacNeill (id:1257525)

汉斯·季默 Hans Zimmer (id:1054386)

◎标 签 Netflix / 犯罪 / 桑德拉·布洛克 / 美国 / 剧情 / 2021 / 翻拍 / 电影

◎简 介

露丝·斯雷特(布洛克饰)因暴力犯罪被判入狱,出狱后的她重新踏入社会,但自己的过去却不被原谅。面对来自她曾经称之为“家”的地方的无情评判,她获得救赎的唯一希望,就是找到当初被自己无奈丢下而疏远了的妹妹。

  1. ##### MediaInfo ######

  2. General

  3. Unique ID : 112525941963225838845521615327892869405 (0x54A7B54701DF974657A75D9D4648111D)

  4. Complete name : [email protected]mkv

  5. Format : Matroska

  6. Format version : Version 4

  7. File size : 10.5 GiB

  8. Duration : 1 h 54 min

  9. Overall bit rate mode : Variable

  10. Overall bit rate : 13.2 Mb/s

  11. Encoded date : UTC 2021-12-10 09:06:42

  12. Writing application : mkvmerge v62.0.0 ('Apollo') 64-bit

  13. Writing library : libebml v1.4.2 + libmatroska v1.6.4


  14. Video

  15. ID : 1

  16. Format : AVC

  17. Format/Info : Advanced Video Codec

  18. Format profile : [email protected]

  19. Format settings : CABAC / 3 Ref Frames

  20. Format settings, CABAC : Yes

  21. Format settings, Reference frames : 3 frames

  22. Codec ID : V_MPEG4/ISO/AVC

  23. Duration : 1 h 54 min

  24. Bit rate mode : Variable

  25. Bit rate : 3 041 kb/s

  26. Nominal bit rate : 3 786 kb/s

  27. Maximum bit rate : 5 745 kb/s

  28. Width : 1 920 pixels

  29. Height : 1 080 pixels

  30. Display aspect ratio : 16:9

  31. Frame rate mode : Constant

  32. Frame rate : 24.000 FPS

  33. Color space : YUV

  34. Chroma subsampling : 4:2:0

  35. Bit depth : 8 bits

  36. Scan type : Progressive

  37. Bits/(Pixel*Frame) : 0.061

  38. Stream size : 2.42 GiB (23%)

  39. Writing library : x264 core 148 r2727 7d026e8

  40. Encoding settings : cabac=1 / ref=3 / deblock=1:0:0 / analyse=0x1:0x111 / me=umh / subme=10 / psy=1 / psy_rd=1.00:0.00 / mixed_ref=1 / me_range=24 / chroma_me=1 / trellis=2 / 8x8dct=0 / cqm=0 / deadzone=21,11 / fast_pskip=1 / chroma_qp_offset=-2 / threads=6 / lookahead_threads=1 / sliced_threads=0 / nr=0 / decimate=1 / interlaced=0 / NTMzNTQ= / bluray_compat=0 / stitchable=1 / constrained_intra=0 / bframes=2 / b_pyramid=0 / b_adapt=2 / b_bias=0 / direct=3 / weightb=1 / open_gop=0 / weightp=2 / keyint=250 / keyint_min=24 / scenecut=0 / intra_refresh=0 / rc_lookahead=48 / rc=2pass / mbtree=1 / bitrate=3786 / ratetol=1.0 / qcomp=0.50 / qpmin=6 / qpmax=51 / qpstep=4 / cplxblur=20.0 / qblur=0.5 / vbv_maxrate=5745 / vbv_bufsize=7660 / nal_hrd=vbr / filler=0 / NTMzNTQ=LmsMAP37EqsCpk / ip_ratio=1.40 / aq=1:1.00

  41. Default : Yes

  42. Forced : No


  43. Audio #1

  44. ID : 2

  45. Format : E-AC-3 JOC

  46. Format/Info : Enhanced AC-3 with Joint Object Coding

  47. Commercial name : Dolby Digital Plus with Dolby Atmos

  48. Codec ID : A_EAC3

  49. Duration : 1 h 54 min

  50. Bit rate mode : Constant

  51. Bit rate : 768 kb/s

  52. Channel(s) : 6 channels

  53. Channel layout : L R C LFE Ls Rs

  54. Sampling rate : 48.0 kHz

  55. Frame rate : 31.250 FPS (1536 SPF)

  56. Compression mode : Lossy

  57. Stream size : 627 MiB (6%)

  58. Title : English

  59. Language : English

  60. Service kind : Complete Main

  61. Default : Yes

  62. Forced : No

  63. Complexity index : 16

  64. Number of dynamic objects : 15

  65. Bed channel count : 1 channel

  66. Bed channel configuration : LFE


  67. Audio #2

  68. ID : 3

  69. Format : E-AC-3

  70. Format/Info : Enhanced AC-3

  71. Commercial name : Dolby Digital Plus

  72. Codec ID : A_EAC3

  73. Duration : 1 h 54 min

  74. Bit rate mode : Constant

  75. Bit rate : 640 kb/s

  76. Channel(s) : 6 channels

  77. Channel layout : L R C LFE Ls Rs

  78. Sampling rate : 48.0 kHz

  79. Frame rate : 31.250 FPS (1536 SPF)

  80. Compression mode : Lossy

  81. Stream size : 522 MiB (5%)

  82. Title : Czech

  83. Language : Czech

  84. Service kind : Complete Main

  85. Default : No

  86. Forced : No


  87. Audio #3

  88. ID : 4

  89. Format : E-AC-3

  90. Format/Info : Enhanced AC-3

  91. Commercial name : Dolby Digital Plus

  92. Codec ID : A_EAC3

  93. Duration : 1 h 54 min

  94. Bit rate mode : Constant

  95. Bit rate : 640 kb/s

  96. Channel(s) : 6 channels

  97. Channel layout : L R C LFE Ls Rs

  98. Sampling rate : 48.0 kHz

  99. Frame rate : 31.250 FPS (1536 SPF)

  100. Compression mode : Lossy

  101. Stream size : 522 MiB (5%)

  102. Title : French

  103. Language : French

  104. Service kind : Complete Main

  105. Default : No

  106. Forced : No


  107. Audio #4

  108. ID : 5

  109. Format : E-AC-3

  110. Format/Info : Enhanced AC-3

  111. Commercial name : Dolby Digital Plus

  112. Codec ID : A_EAC3

  113. Duration : 1 h 54 min

  114. Bit rate mode : Constant

  115. Bit rate : 640 kb/s

  116. Channel(s) : 6 channels

  117. Channel layout : L R C LFE Ls Rs

  118. Sampling rate : 48.0 kHz

  119. Frame rate : 31.250 FPS (1536 SPF)

  120. Compression mode : Lossy

  121. Stream size : 522 MiB (5%)

  122. Title : German

  123. Language : German

  124. Service kind : Complete Main

  125. Default : No

  126. Forced : No


  127. Audio #5

  128. ID : 6

  129. Format : E-AC-3

  130. Format/Info : Enhanced AC-3

  131. Commercial name : Dolby Digital Plus

  132. Codec ID : A_EAC3

  133. Duration : 1 h 54 min

  134. Bit rate mode : Constant

  135. Bit rate : 640 kb/s

  136. Channel(s) : 6 channels

  137. Channel layout : L R C LFE Ls Rs

  138. Sampling rate : 48.0 kHz

  139. Frame rate : 31.250 FPS (1536 SPF)

  140. Compression mode : Lossy

  141. Stream size : 522 MiB (5%)

  142. Title : Hindi

  143. Language : Hindi

  144. Service kind : Complete Main

  145. Default : No

  146. Forced : No


  147. Audio #6

  148. ID : 7

  149. Format : E-AC-3

  150. Format/Info : Enhanced AC-3

  151. Commercial name : Dolby Digital Plus

  152. Codec ID : A_EAC3

  153. Duration : 1 h 54 min

  154. Bit rate mode : Constant

  155. Bit rate : 640 kb/s

  156. Channel(s) : 6 channels

  157. Channel layout : L R C LFE Ls Rs

  158. Sampling rate : 48.0 kHz

  159. Frame rate : 31.250 FPS (1536 SPF)

  160. Compression mode : Lossy

  161. Stream size : 522 MiB (5%)

  162. Title : Hungarian

  163. Language : Hungarian

  164. Service kind : Complete Main

  165. Default : No

  166. Forced : No


  167. Audio #7

  168. ID : 8

  169. Format : E-AC-3

  170. Format/Info : Enhanced AC-3

  171. Commercial name : Dolby Digital Plus

  172. Codec ID : A_EAC3

  173. Duration : 1 h 54 min

  174. Bit rate mode : Constant

  175. Bit rate : 640 kb/s

  176. Channel(s) : 6 channels

  177. Channel layout : L R C LFE Ls Rs

  178. Sampling rate : 48.0 kHz

  179. Frame rate : 31.250 FPS (1536 SPF)

  180. Compression mode : Lossy

  181. Stream size : 522 MiB (5%)

  182. Title : Italian

  183. Language : Italian

  184. Service kind : Complete Main

  185. Default : No

  186. Forced : No


  187. Audio #8

  188. ID : 9

  189. Format : E-AC-3

  190. Format/Info : Enhanced AC-3

  191. Commercial name : Dolby Digital Plus

  192. Codec ID : A_EAC3

  193. Duration : 1 h 54 min

  194. Bit rate mode : Constant

  195. Bit rate : 448 kb/s

  196. Channel(s) : 6 channels

  197. Channel layout : L R C LFE Ls Rs

  198. Sampling rate : 48.0 kHz

  199. Frame rate : 31.250 FPS (1536 SPF)

  200. Compression mode : Lossy

  201. Stream size : 366 MiB (3%)

  202. Title : Japanese

  203. Language : Japanese

  204. Service kind : Complete Main

  205. Default : No

  206. Forced : No


  207. Audio #9

  208. ID : 10

  209. Format : E-AC-3

  210. Format/Info : Enhanced AC-3

  211. Commercial name : Dolby Digital Plus

  212. Codec ID : A_EAC3

  213. Duration : 1 h 54 min

  214. Bit rate mode : Constant

  215. Bit rate : 640 kb/s

  216. Channel(s) : 6 channels

  217. Channel layout : L R C LFE Ls Rs

  218. Sampling rate : 48.0 kHz

  219. Frame rate : 31.250 FPS (1536 SPF)

  220. Compression mode : Lossy

  221. Stream size : 522 MiB (5%)

  222. Title : Polish

  223. Language : Polish

  224. Service kind : Complete Main

  225. Default : No

  226. Forced : No


  227. Audio #10

  228. ID : 11

  229. Format : E-AC-3

  230. Format/Info : Enhanced AC-3

  231. Commercial name : Dolby Digital Plus

  232. Codec ID : A_EAC3

  233. Duration : 1 h 54 min

  234. Bit rate mode : Constant

  235. Bit rate : 640 kb/s

  236. Channel(s) : 6 channels

  237. Channel layout : L R C LFE Ls Rs

  238. Sampling rate : 48.0 kHz

  239. Frame rate : 31.250 FPS (1536 SPF)

  240. Compression mode : Lossy

  241. Stream size : 522 MiB (5%)

  242. Title : Brazilian Portuguese

  243. Language : Portuguese

  244. Service kind : Complete Main

  245. Default : No

  246. Forced : No


  247. Audio #11

  248. ID : 12

  249. Format : E-AC-3

  250. Format/Info : Enhanced AC-3

  251. Commercial name : Dolby Digital Plus

  252. Codec ID : A_EAC3

  253. Duration : 1 h 54 min

  254. Bit rate mode : Constant

  255. Bit rate : 640 kb/s

  256. Channel(s) : 6 channels

  257. Channel layout : L R C LFE Ls Rs

  258. Sampling rate : 48.0 kHz

  259. Frame rate : 31.250 FPS (1536 SPF)

  260. Compression mode : Lossy

  261. Stream size : 522 MiB (5%)

  262. Title : Russian

  263. Language : Russian

  264. Service kind : Complete Main

  265. Default : No

  266. Forced : No


  267. Audio #12

  268. ID : 13

  269. Format : E-AC-3

  270. Format/Info : Enhanced AC-3

  271. Commercial name : Dolby Digital Plus

  272. Codec ID : A_EAC3

  273. Duration : 1 h 54 min

  274. Bit rate mode : Constant

  275. Bit rate : 640 kb/s

  276. Channel(s) : 6 channels

  277. Channel layout : L R C LFE Ls Rs

  278. Sampling rate : 48.0 kHz

  279. Frame rate : 31.250 FPS (1536 SPF)

  280. Compression mode : Lossy

  281. Stream size : 522 MiB (5%)

  282. Title : Spanish

  283. Language : Spanish

  284. Service kind : Complete Main

  285. Default : No

  286. Forced : No


  287. Audio #13

  288. ID : 14

  289. Format : E-AC-3

  290. Format/Info : Enhanced AC-3

  291. Commercial name : Dolby Digital Plus

  292. Codec ID : A_EAC3

  293. Duration : 1 h 54 min

  294. Bit rate mode : Constant

  295. Bit rate : 640 kb/s

  296. Channel(s) : 6 channels

  297. Channel layout : L R C LFE Ls Rs

  298. Sampling rate : 48.0 kHz

  299. Frame rate : 31.250 FPS (1536 SPF)

  300. Compression mode : Lossy

  301. Stream size : 522 MiB (5%)

  302. Title : European Spanish

  303. Language : Spanish

  304. Service kind : Complete Main

  305. Default : No

  306. Forced : No


  307. Audio #14

  308. ID : 15

  309. Format : E-AC-3

  310. Format/Info : Enhanced AC-3

  311. Commercial name : Dolby Digital Plus

  312. Codec ID : A_EAC3

  313. Duration : 1 h 54 min

  314. Bit rate mode : Constant

  315. Bit rate : 640 kb/s

  316. Channel(s) : 6 channels

  317. Channel layout : L R C LFE Ls Rs

  318. Sampling rate : 48.0 kHz

  319. Frame rate : 31.250 FPS (1536 SPF)

  320. Compression mode : Lossy

  321. Stream size : 522 MiB (5%)

  322. Title : Thai

  323. Language : Thai

  324. Service kind : Complete Main

  325. Default : No

  326. Forced : No


  327. Audio #15

  328. ID : 16

  329. Format : E-AC-3

  330. Format/Info : Enhanced AC-3

  331. Commercial name : Dolby Digital Plus

  332. Codec ID : A_EAC3

  333. Duration : 1 h 54 min

  334. Bit rate mode : Constant

  335. Bit rate : 640 kb/s

  336. Channel(s) : 6 channels

  337. Channel layout : L R C LFE Ls Rs

  338. Sampling rate : 48.0 kHz

  339. Frame rate : 31.250 FPS (1536 SPF)

  340. Compression mode : Lossy

  341. Stream size : 522 MiB (5%)

  342. Title : Turkish

  343. Language : Turkish

  344. Service kind : Complete Main

  345. Default : No

  346. Forced : No


  347. Audio #16

  348. ID : 17

  349. Format : E-AC-3

  350. Format/Info : Enhanced AC-3

  351. Commercial name : Dolby Digital Plus

  352. Codec ID : A_EAC3

  353. Duration : 1 h 54 min

  354. Bit rate mode : Constant

  355. Bit rate : 640 kb/s

  356. Channel(s) : 6 channels

  357. Channel layout : L R C LFE Ls Rs

  358. Sampling rate : 48.0 kHz

  359. Frame rate : 31.250 FPS (1536 SPF)

  360. Compression mode : Lossy

  361. Stream size : 522 MiB (5%)

  362. Title : Ukrainian

  363. Language : Ukrainian

  364. Service kind : Complete Main

  365. Default : No

  366. Forced : No


  367. Text #1

  368. ID : 18

  369. Format : UTF-8

  370. Codec ID : S_TEXT/UTF8

  371. Codec ID/Info : UTF-8 Plain Text

  372. Duration : 1 h 51 min

  373. Bit rate : 62 b/s

  374. Count of elements : 1178

  375. Stream size : 50.7 KiB (0%)

  376. Title : English

  377. Language : English

  378. Default : Yes

  379. Forced : No


  380. Text #2

  381. ID : 19

  382. Format : UTF-8

  383. Codec ID : S_TEXT/UTF8

  384. Codec ID/Info : UTF-8 Plain Text

  385. Duration : 1 h 51 min

  386. Bit rate : 66 b/s

  387. Count of elements : 964

  388. Stream size : 54.6 KiB (0%)

  389. Title : Arabic

  390. Language : Arabic

  391. Default : No

  392. Forced : No


  393. Text #3

  394. ID : 20

  395. Format : UTF-8

  396. Codec ID : S_TEXT/UTF8

  397. Codec ID/Info : UTF-8 Plain Text

  398. Duration : 1 h 51 min

  399. Bit rate : 38 b/s

  400. Count of elements : 973

  401. Stream size : 31.7 KiB (0%)

  402. Title : Chinese Simplified

  403. Language : Chinese

  404. Default : No

  405. Forced : No


  406. Text #4

  407. ID : 21

  408. Format : UTF-8

  409. Codec ID : S_TEXT/UTF8

  410. Codec ID/Info : UTF-8 Plain Text

  411. Duration : 1 h 51 min

  412. Bit rate : 36 b/s

  413. Count of elements : 973

  414. Stream size : 30.1 KiB (0%)

  415. Title : Chinese Traditional

  416. Language : Chinese

  417. Default : No

  418. Forced : No


  419. Text #5

  420. ID : 22

  421. Format : UTF-8

  422. Codec ID : S_TEXT/UTF8

  423. Codec ID/Info : UTF-8 Plain Text

  424. Duration : 1 h 51 min

  425. Bit rate : 33 b/s

  426. Count of elements : 952

  427. Stream size : 27.6 KiB (0%)

  428. Title : Croatian

  429. Language : Croatian

  430. Default : No

  431. Forced : No


  432. Text #6

  433. ID : 23

  434. Format : UTF-8

  435. Codec ID : S_TEXT/UTF8

  436. Codec ID/Info : UTF-8 Plain Text

  437. Duration : 1 h 51 min

  438. Bit rate : 36 b/s

  439. Count of elements : 946

  440. Stream size : 30.2 KiB (0%)

  441. Title : Czech

  442. Language : Czech

  443. Default : No

  444. Forced : No


  445. Text #7

  446. ID : 24

  447. Format : UTF-8

  448. Codec ID : S_TEXT/UTF8

  449. Codec ID/Info : UTF-8 Plain Text

  450. Duration : 1 h 51 min

  451. Bit rate : 34 b/s

  452. Count of elements : 896

  453. Stream size : 28.2 KiB (0%)

  454. Title : Danish

  455. Language : Danish

  456. Default : No

  457. Forced : No


  458. Text #8

  459. ID : 25

  460. Format : UTF-8

  461. Codec ID : S_TEXT/UTF8

  462. Codec ID/Info : UTF-8 Plain Text

  463. Duration : 1 h 51 min

  464. Bit rate : 32 b/s

  465. Count of elements : 840

  466. Stream size : 26.9 KiB (0%)

  467. Title : Dutch

  468. Language : Dutch

  469. Default : No

  470. Forced : No


  471. Text #9

  472. ID : 26

  473. Format : UTF-8

  474. Codec ID : S_TEXT/UTF8

  475. Codec ID/Info : UTF-8 Plain Text

  476. Duration : 1 h 51 min

  477. Bit rate : 34 b/s

  478. Count of elements : 861

  479. Stream size : 28.1 KiB (0%)

  480. Title : Finnish

  481. Language : Finnish

  482. Default : No

  483. Forced : No


  484. Text #10

  485. ID : 27

  486. Format : UTF-8

  487. Codec ID : S_TEXT/UTF8

  488. Codec ID/Info : UTF-8 Plain Text

  489. Duration : 1 h 51 min

  490. Bit rate : 35 b/s

  491. Count of elements : 952

  492. Stream size : 28.9 KiB (0%)

  493. Title : French

  494. Language : French

  495. Default : No

  496. Forced : No


  497. Text #11

  498. ID : 28

  499. Format : UTF-8

  500. Codec ID : S_TEXT/UTF8

  501. Codec ID/Info : UTF-8 Plain Text

  502. Duration : 1 h 51 min

  503. Bit rate : 35 b/s

  504. Count of elements : 949

  505. Stream size : 28.9 KiB (0%)

  506. Title : German

  507. Language : German

  508. Default : No

  509. Forced : No


  510. Text #12

  511. ID : 29

  512. Format : UTF-8

  513. Codec ID : S_TEXT/UTF8

  514. Codec ID/Info : UTF-8 Plain Text

  515. Duration : 1 h 51 min

  516. Bit rate : 60 b/s

  517. Count of elements : 968

  518. Stream size : 49.6 KiB (0%)

  519. Title : Greek

  520. Language : Greek

  521. Default : No

  522. Forced : No


  523. Text #13

  524. ID : 30

  525. Format : UTF-8

  526. Codec ID : S_TEXT/UTF8

  527. Codec ID/Info : UTF-8 Plain Text

  528. Duration : 1 h 51 min

  529. Bit rate : 61 b/s

  530. Count of elements : 957

  531. Stream size : 50.5 KiB (0%)

  532. Title : Hebrew

  533. Language : Hebrew

  534. Default : No

  535. Forced : No


  536. Text #14

  537. ID : 31

  538. Format : UTF-8

  539. Codec ID : S_TEXT/UTF8

  540. Codec ID/Info : UTF-8 Plain Text

  541. Duration : 1 h 51 min

  542. Bit rate : 35 b/s

  543. Count of elements : 952

  544. Stream size : 29.2 KiB (0%)

  545. Title : Hungarian

  546. Language : Hungarian

  547. Default : No

  548. Forced : No


  549. Text #15

  550. ID : 32

  551. Format : UTF-8

  552. Codec ID : S_TEXT/UTF8

  553. Codec ID/Info : UTF-8 Plain Text

  554. Duration : 1 h 51 min

  555. Bit rate : 36 b/s

  556. Count of elements : 970

  557. Stream size : 29.8 KiB (0%)

  558. Title : Indonesian

  559. Language : Indonesian

  560. Default : No

  561. Forced : No


  562. Text #16

  563. ID : 33

  564. Format : UTF-8

  565. Codec ID : S_TEXT/UTF8

  566. Codec ID/Info : UTF-8 Plain Text

  567. Duration : 1 h 51 min

  568. Bit rate : 35 b/s

  569. Count of elements : 954

  570. Stream size : 29.4 KiB (0%)

  571. Title : Italian

  572. Language : Italian

  573. Default : No

  574. Forced : No


  575. Text #17

  576. ID : 34

  577. Format : UTF-8

  578. Codec ID : S_TEXT/UTF8

  579. Codec ID/Info : UTF-8 Plain Text

  580. Duration : 1 h 51 min

  581. Bit rate : 34 b/s

  582. Count of elements : 1059

  583. Stream size : 28.5 KiB (0%)

  584. Title : Japanese

  585. Language : Japanese

  586. Default : No

  587. Forced : No


  588. Text #18

  589. ID : 35

  590. Format : UTF-8

  591. Codec ID : S_TEXT/UTF8

  592. Codec ID/Info : UTF-8 Plain Text

  593. Duration : 1 h 51 min

  594. Bit rate : 42 b/s

  595. Count of elements : 980

  596. Stream size : 34.9 KiB (0%)

  597. Title : Korean

  598. Language : Korean

  599. Default : No

  600. Forced : No


  601. Text #19

  602. ID : 36

  603. Format : UTF-8

  604. Codec ID : S_TEXT/UTF8

  605. Codec ID/Info : UTF-8 Plain Text

  606. Duration : 1 h 51 min

  607. Bit rate : 34 b/s

  608. Count of elements : 946

  609. Stream size : 27.9 KiB (0%)

  610. Title : Malay

  611. Language : Malay

  612. Default : No

  613. Forced : No


  614. Text #20

  615. ID : 37

  616. Format : UTF-8

  617. Codec ID : S_TEXT/UTF8

  618. Codec ID/Info : UTF-8 Plain Text

  619. Duration : 1 h 51 min

  620. Bit rate : 35 b/s

  621. Count of elements : 929

  622. Stream size : 29.0 KiB (0%)

  623. Title : Norwegian Bokmal

  624. Language : Norwegian Bokmal

  625. Default : No

  626. Forced : No


  627. Text #21

  628. ID : 38

  629. Format : UTF-8

  630. Codec ID : S_TEXT/UTF8

  631. Codec ID/Info : UTF-8 Plain Text

  632. Duration : 1 h 51 min

  633. Bit rate : 34 b/s

  634. Count of elements : 945

  635. Stream size : 28.2 KiB (0%)

  636. Title : Polish

  637. Language : Polish

  638. Default : No

  639. Forced : No


  640. Text #22

  641. ID : 39

  642. Format : UTF-8

  643. Codec ID : S_TEXT/UTF8

  644. Codec ID/Info : UTF-8 Plain Text

  645. Duration : 1 h 51 min

  646. Bit rate : 37 b/s

  647. Count of elements : 954

  648. Stream size : 30.6 KiB (0%)

  649. Title : Portuguese

  650. Language : Portuguese

  651. Default : No

  652. Forced : No


  653. Text #23

  654. ID : 40

  655. Format : UTF-8

  656. Codec ID : S_TEXT/UTF8

  657. Codec ID/Info : UTF-8 Plain Text

  658. Duration : 1 h 51 min

  659. Bit rate : 36 b/s

  660. Count of elements : 979

  661. Stream size : 29.6 KiB (0%)

  662. Title : Brazilian Portuguese

  663. Language : Portuguese

  664. Default : No

  665. Forced : No


  666. Text #24

  667. ID : 41

  668. Format : UTF-8

  669. Codec ID : S_TEXT/UTF8

  670. Codec ID/Info : UTF-8 Plain Text

  671. Duration : 1 h 51 min

  672. Bit rate : 41 b/s

  673. Count of elements : 948

  674. Stream size : 33.8 KiB (0%)

  675. Title : Romanian

  676. Language : Romanian

  677. Default : No

  678. Forced : No


  679. Text #25

  680. ID : 42

  681. Format : UTF-8

  682. Codec ID : S_TEXT/UTF8

  683. Codec ID/Info : UTF-8 Plain Text

  684. Duration : 1 h 51 min

  685. Bit rate : 60 b/s

  686. Count of elements : 955

  687. Stream size : 49.3 KiB (0%)

  688. Title : Russian

  689. Language : Russian

  690. Default : No

  691. Forced : No


  692. Text #26

  693. ID : 43

  694. Format : UTF-8

  695. Codec ID : S_TEXT/UTF8

  696. Codec ID/Info : UTF-8 Plain Text

  697. Duration : 1 h 51 min

  698. Bit rate : 34 b/s

  699. Count of elements : 971

  700. Stream size : 28.2 KiB (0%)

  701. Title : Spanish

  702. Language : Spanish

  703. Default : No

  704. Forced : No


  705. Text #27

  706. ID : 44

  707. Format : UTF-8

  708. Codec ID : S_TEXT/UTF8

  709. Codec ID/Info : UTF-8 Plain Text

  710. Duration : 1 h 51 min

  711. Bit rate : 35 b/s

  712. Count of elements : 993

  713. Stream size : 28.7 KiB (0%)

  714. Title : European Spanish

  715. Language : Spanish

  716. Default : No

  717. Forced : No


  718. Text #28

  719. ID : 45

  720. Format : UTF-8

  721. Codec ID : S_TEXT/UTF8

  722. Codec ID/Info : UTF-8 Plain Text

  723. Duration : 1 h 51 min

  724. Bit rate : 35 b/s

  725. Count of elements : 903

  726. Stream size : 29.4 KiB (0%)

  727. Title : Swedish

  728. Language : Swedish

  729. Default : No

  730. Forced : No


  731. Text #29

  732. ID : 46

  733. Format : UTF-8

  734. Codec ID : S_TEXT/UTF8

  735. Codec ID/Info : UTF-8 Plain Text

  736. Duration : 1 h 51 min

  737. Bit rate : 96 b/s

  738. Count of elements : 971

  739. Stream size : 78.7 KiB (0%)

  740. Title : Thai

  741. Language : Thai

  742. Default : No

  743. Forced : No


  744. Text #30

  745. ID : 47

  746. Format : UTF-8

  747. Codec ID : S_TEXT/UTF8

  748. Codec ID/Info : UTF-8 Plain Text

  749. Duration : 1 h 51 min

  750. Bit rate : 38 b/s

  751. Count of elements : 950

  752. Stream size : 31.2 KiB (0%)

  753. Title : Turkish

  754. Language : Turkish

  755. Default : No

  756. Forced : No


  757. Text #31

  758. ID : 48

  759. Format : UTF-8

  760. Codec ID : S_TEXT/UTF8

  761. Codec ID/Info : UTF-8 Plain Text

  762. Duration : 1 h 51 min

  763. Bit rate : 56 b/s

  764. Count of elements : 974

  765. Stream size : 46.7 KiB (0%)

  766. Title : Ukrainian

  767. Language : Ukrainian

  768. Default : No

  769. Forced : No


  770. Text #32

  771. ID : 49

  772. Format : UTF-8

  773. Codec ID : S_TEXT/UTF8

  774. Codec ID/Info : UTF-8 Plain Text

  775. Duration : 1 h 51 min

  776. Bit rate : 52 b/s

  777. Count of elements : 982

  778. Stream size : 42.9 KiB (0%)

  779. Title : Vietnamese

  780. Language : Vietnamese

  781. Default : No

  782. Forced : No




复制代码



文件下载


除非特别注明,本文『不可饶恕[中文字幕].The.Unforgivable.2021.1080p.NF.WEB-DL.DDP5.1.x264-btbt9527.com 10.54GB』来源于互联网机器人自动抓取,非本站原创。 浮游电影网不对本文拥有版权,如有侵犯,请联系邮箱:fuyouu#yandex.com[#换成@]投诉。我们会在15个工作日内删除。 但烦请转载时请标明出处:“本文转载于『浮游电影网』,原文地址:https://www.fuyouu.com/19260.html

评论吧骚年!

发表你的见解   

昵称*

E-mail*(建议输入,以便收到博主回复的提示邮件)

验证码*

您可以使用eMule或eMule Mod(Windows)、aMule(Win、Linux、Mac)等软件下载eD2k链接。。
eMule收藏集(.emulecollection)文件是您选中的所有链接的列表文件。eMule可以直接下载它们。
按住SHIFT键选择可以选中多个选择框。
可用文件名和大小选择器来选择文件。
文件名选择器帮您根据文件名称或后缀来选择文件。不分大小写。
符号使用:
和:空格( )、+
不包含:-
或:|
转义:一对英文引号("");
匹配开头:^
匹配结尾:$
例如:
选中所有名称中包含有“eMule”或“0.49c”字眼,但不包含有“exe”字眼的:emule|0.49c -exe
选中所有名称的开头是“eMule”,结尾是“0.49c”的:^emule 0.49c$
选中所有名称中带有“eMule 0.49c”的(必须是“eMule 0.49c”,中间没有别的字符,不能是“eMule fake 0.49c”),需要转义:"emule 0.49c"
大小选择器帮您根据文件大小选择文件。