当前位置: 首页 >> 欧美电影 >> 王者之心[国语配音/中文字幕].Tristan.and.Isolde.2006.1080p.BluRay.x265.10bit.DTS.2Audio-btbt9527.com 9.98GB >> 正文

王者之心[国语配音/中文字幕].Tristan.and.Isolde.2006.1080p.BluRay.x265.10bit.DTS.2Audio-btbt9527.com 9.98GB

2021年12月10日 22:35:19     电影发布:来源于网络     电影分类:欧美电影     评论(0)    

王者之心[国语配音/中文字幕].Tristan.and.Isolde.2006.1080p.BluRay.x265.10bit.DTS.2Audio btbt9527.com 9.98GB 古装片 冒险片 爱情片 动作片 剧情片 欧美电影  第1张

◎译 名 王者之心 / 崔斯坦和依索德 / 崔斯坦与伊索德 / 特里斯坦和伊索尔德

◎片 名 Tristan + Isolde

◎年 代 2006

◎产 地 美国 / 英国 / 德国

◎类 别 剧情 / 动作 / 爱情 / 冒险 / 古装

◎语 言 英语

◎上映日期 2007-05-25(中国大陆) / 2006-01-13(美国)

◎IMDb链接 https://www.imdb.com/title/tt0375154/

◎豆瓣评分 7.1/10 (14669人评价)

◎豆瓣链接 https://movie.douban.com/subject/1461919/

◎片 长 125分钟

◎导 演 凯文·雷诺兹 Kevin Reynolds (id:1014056)

◎编 剧 迪恩·乔格瑞斯 Dean Georgaris (id:1326742)

◎演 员 詹姆斯·弗兰科 James Franco (id:1019001)

索菲娅·迈尔斯 Sophia Myles (id:1031869)

卢夫斯·塞维尔 Rufus Sewell (id:1041126)

大卫·奥哈拉 David O'Hara (id:1131482)

马克·斯特朗 Mark Strong (id:1274374)

亨利·卡维尔 Henry Cavill (id:1044713)

布罗娜·加拉赫 Bronagh Gallagher (id:1284418)

罗南·维博特 Ronan Vibert (id:1149774)

露西·拉塞尔 Lucy Russell (id:1275142)

JB·布兰科 JB Blanc (id:1186083)

里奥·格雷高里 Leo Gregory (id:1040756)

德克斯特·弗莱彻 Dexter Fletcher (id:1007028)

理查德·迪兰 Richard Dillane (id:1335290)

汉斯·马丁·施蒂尔 Hans Martin Stier (id:1151061)

托马斯·莫里斯 Thomas Morris (id:1056189)

杰米·托马斯·金 Jamie Thomas King (id:1215599)

沃尔夫冈·穆勒 Wolfgang Müller (id:1136873)

Cheyenne Rushing Cheyenne Rushing (id:1141669)

芭芭拉·科德托娃 Barbora Kodetová (id:1105977)

托马斯·布罗迪-桑斯特 Thomas Brodie-Sangster (id:1016669)

Jack Montgomery (id:1251509)

马雷克·瓦苏特 Marek Vasut (id:1160681)

Todd Kramer Todd Kramer (id:1104523)

雯特·艾娃·佐莉 Winter Ave Zoli (id:1335423)

米罗斯拉夫·西蒙尼克 Miroslav Simunek (id:1154619)

莱乔·瓦斯列夫 Raicho Vasilev (id:1154553)

詹姆斯·弗林 James Flynn (id:1283891)

詹妮娜·法西奥 Giannina Facio (id:1050008)

Lisa Ellzey Lisa Ellzey (id:1283151)

埃利·萨马哈 Elie Samaha (id:1045326)

雷德利·斯科特 Ridley Scott (id:1054416)

弗兰克·休伯纳 Frank Hübner (id:1287084)

吉姆·莱姆利 Jim Lemley (id:1032590)

托尼·斯科特 Tony Scott (id:1017979)

Jan Fantl Jan Fantl (id:1019453)

马修·斯蒂尔曼 Matthew Stillman (id:1029083)

安妮·达德莉 Anne Dudley (id:1048431)

Artur Reinhart Artur Reinhart (id:1001766)

彼得·波义耳 Peter Boyle (id:1070291)

马克·杰拉蒂 Mark Geraghty (id:1284723)

毛里齐奥·米莱诺蒂 Maurizio Millenotti (id:1021943)

曼奥·罗切蒂 Manlio Rocchetti (id:1295835)

Mario Michisanti Mario Michisanti (id:1291991)

琳达·梅拉佐 Linda Melazzo (id:1291788)

Jirí Farkas Jirí Farkas (id:1090560)

Stefano Ceccarelli Stefano Ceccarelli (id:1280336)

Jaroslav Samal Jaroslav Samal (id:1296557)

Massimiliano Duranti Massimiliano Duranti (id:1303363)

Mirella Ginnoto Mirella Ginnoto (id:1284896)

Mark Taylor Mark Taylor (id:1159673)

欧德里奇·马赫 Oldrich Mach (id:1024866)

Tara McNamee Tara McNamee (id:1193999)

尼克·鲍威尔 Nick Powell (id:1294826)

Mark Carter Mark Carter (id:1280189)

Vít Komrzy Vít Komrzy (id:1288857)

Florian Martin Florian Martin (id:1118690)

◎标 签 爱情 / 史诗 / 美国 / 战争 / 历史 / 美国电影 / JamesFranco / 古装

◎简 介

中世纪,罗马帝国毁灭,各方势力分割盘踞英格兰,爱尔兰国王乘机聚集势力、虎视眈眈。雄图大略的马克王(卢夫斯·塞维尔 Rufus Sewell 饰)希望在传奇骑士特里斯坦(詹姆斯·弗兰科 James Franco 饰)的帮助下实现统一大业。失去双亲特里斯坦的他被马克王悉心抚养长大,情同父子。为分裂英格兰各部落,爱尔兰王决定以女儿为奖品举办全英骑士大赛。特里斯坦为马克王赢得了公主,但当看到公主的真面目时他如遭雷击。原来他曾在进攻爱尔兰的战斗中身负重伤,得到了神秘爱尔兰女子伊索尔德(索非亚·迈尔斯 Sophia Myles 饰)的照顾。两人由此相爱,但为了统一大业不得不分离。不管是为了国家和平还是为了养育之情,特里斯坦和伊索尔德都无法再继续恋情。

他们将如何压抑这份热情?而爱尔兰国王的阴谋是否给马克王的统一大业带去障碍?

  1. ##### MediaInfo ######

  2. General

  3. Unique ID : 211185698183358799598118345849181495930 (0x9EE0E2D09E558E4254226C1C9412E27A)

  4. Complete name : T[email protected]MKVHome.mkv

  5. Format : Matroska

  6. Format version : Version 4

  7. File size : 9.98 GiB

  8. Duration : 2 h 5 min

  9. Overall bit rate : 11.4 Mb/s

  10. Movie name : Tristan.and.Isolde

  11. Encoded date : UTC 2021-11-24 11:27:14

  12. Writing application : mkvmerge v51.0.0 ('I Wish') 64-bit

  13. Writing library : libebml v1.4.0 + libmatroska v1.6.2


  14. Video

  15. ID : 1

  16. Format : HEVC

  17. Format/Info : High Efficiency Video Coding

  18. Format profile : Main [email protected]@Main

  19. Codec ID : V_MPEGH/ISO/HEVC

  20. Duration : 2 h 5 min

  21. Bit rate : 9 632 kb/s

  22. Width : 1 916 pixels

  23. Height : 1 040 pixels

  24. Display aspect ratio : 1.85:1

  25. Frame rate mode : Constant

  26. Frame rate : 23.976 (24000/1001/53354) FPS

  27. Color space : YUV

  28. Chroma subsampling : 4:2:0

  29. Bit depth : 10 bits

  30. Bits/(Pixel*Frame) : 0.202

  31. Stream size : 8.44 GiB (85%)

  32. Writing library : x265 3.4+1-g07e3381df+31:[Windows][GCC 10.1.0][64 bit] Yuuki 10bit+8bit+12bit

  33. Encoding settings : rc=crf / crf=19.0000 / qcomp=0.65 / qpstep=4 / stats-write=0 / stats-read=0 / no-lossless / no-cu-lossless / aq-mode=3 / aq-strength=0.90 / cbqpoffs=0 / crqpoffs=0 / ipratio=1.40 / pbratio=1.30 / psy-rd=2.00 / psy-rdoq=0.00 / deblock=0:0 / ref=6 / limit-refs=1 / no-limit-modes / bframes=8 / b-adapt=2 / bframe-bias=0 / b-pyramid / b-intra / weightp / weightb / min-keyint=24 / max-keyint=240 / rc-lookahead=24 / gop-lookahead=0 / NTMzNTQ=uuDQuD2mJt9fsCf / scenecut=40 / hist-scenecut=0 / radl=0 / max-cu-size=64 / min-cu-size=8 / me=3 / subme=7 / merange=48 / rdoq-level=0 / rd=4 / rdpenalty=0 / dynamic-rd=0.00 / no-rd-refine / ----- / cutree / sao / no-rect / no-amp / no-open-gop / wpp / no-pmode / no-pme / no-psnr / no-ssim / nr-intra=0 / nr-inter=0 / no-constrained-intra / no-strong-intra-smoothing / max-tu-size=32 / tu-inter-depth=1 / tu-intra-depth=1 / limit-tu=0 / qg-size=32 / qpmax=69 / qpmin=0 / ----- / cpuid=533541111039 / frame-threads=3 / numa-pools=+ / log-level=2 / input-csp=1 / input-res=1916x1040 / interlace=0 / level-idc=0 / high-tier=1 / uhd-bd=0 / no-allow-non-conformance / no-repeat-headers / aud / no-hrd / info / hash=0 / no-temporal-layers / lookahead-slices=0 / no-splice / no-intra-refresh / no-ssim-rd / signhide / no-tskip / max-merge=3 / temporal-mvp / no-frame-dup / no-hme / no-analyze-src-pics / no-sao-non-deblock / selective-sao=4 / early-skip / rskip / no-fast-intra / no-tskip-fast / no-splitrd-skip / zone-count=0 / no-strict-cbr / no-rc-grain / no-const-vbv / sar=0 / overscan=0 / videoformat=5 / range=0 / colorprim=2 / transfer=2 / colormatrix=2 / chromaloc=0 / display-window=0 / cll=0,0 / min-luma=0 / max-luma=1023 / log2-max-poc-lsb=8 / vui-timing-info / vui-hrd-info / slices=1 / no-opt-qp-pps / no-opt-ref-list-length-pps / no-multi-pass-opt-rps / scenecut-bias=0.05 / hist-threshold=0.01 / no-opt-cu-delta-qp / no-aq-motion / no-hdr10 / no-hdr10-opt / no-dhdr10-opt / no-idr-recovery-sei / analysis-reuse-level=0 / analysis-save-reuse-level=0 / analysis-load-reuse-level=0 / scale-factor=0 / refine-intra=0 / refine-inter=0 / refine-mv=1 / refine-ctu-distortion=0 / no-limit-sao / ctu-info=0 / no-lowpass-dct / refine-analysis-type=0 / copy-pic=1 / max-ausize-factor=1.0 / no-dynamic-refine / no-single-sei / no-hevc-aq / no-svt / no-field / qp-adaptation-range=1.00 / no-scenecut-aware-qpconformance-window-offsets / right=0 / bottom=0 / NTMzNTQ= / decoder-max-rate=0

  34. Default : Yes

  35. Forced : No


  36. Audio #1

  37. ID : 2

  38. ID in the original source medium : 4353 (0x1101)

  39. Format : DTS

  40. Format/Info : Digital Theater Systems

  41. Codec ID : A_DTS

  42. Duration : 2 h 5 min

  43. Bit rate mode : Constant

  44. Bit rate : 1 509 kb/s

  45. Channel(s) : 6 channels

  46. Channel layout : C L R Ls Rs LFE

  47. Sampling rate : 48.0 kHz

  48. Frame rate : 93.750 FPS (512 SPF)

  49. Bit depth : 16 bits

  50. Compression mode : Lossy

  51. Delay relative to video : 125 ms

  52. Stream size : 1.32 GiB (13%)

  53. Language : English

  54. Default : Yes

  55. Forced : No

  56. Original source medium : Blu-ray


  57. Audio #2

  58. ID : 3

  59. ID in the original source medium : 4354 (0x1102)

  60. Format : AC-3

  61. Format/Info : Audio Coding 3

  62. Commercial name : Dolby Digital

  63. Codec ID : A_AC3

  64. Duration : 2 h 5 min

  65. Bit rate mode : Constant

  66. Bit rate : 192 kb/s

  67. Channel(s) : 2 channels

  68. Channel layout : L R

  69. Sampling rate : 48.0 kHz

  70. Frame rate : 31.250 FPS (1536 SPF)

  71. Compression mode : Lossy

  72. Delay relative to video : 125 ms

  73. Stream size : 172 MiB (2%)

  74. Language : Chinese

  75. Service kind : Complete Main

  76. Default : No

  77. Forced : No

  78. Original source medium : Blu-ray


  79. Text #1

  80. ID : 4

  81. ID in the original source medium : 4613 (0x1205)

  82. Format : PGS

  83. Muxing mode : zlib

  84. Codec ID : S_HDMV/PGS

  85. Codec ID/Info : Picture based subtitle format used on BDs/HD-DVDs

  86. Duration : 1 h 57 min

  87. Bit rate : 34.3 kb/s

  88. Count of elements : 1922

  89. Stream size : 28.8 MiB (0%)

  90. Title : chs&eng

  91. Language : Chinese

  92. Default : Yes

  93. Forced : No

  94. Original source medium : Blu-ray


  95. Text #2

  96. ID : 5

  97. ID in the original source medium : 4614 (0x1206)

  98. Format : PGS

  99. Muxing mode : zlib

  100. Codec ID : S_HDMV/PGS

  101. Codec ID/Info : Picture based subtitle format used on BDs/HD-DVDs

  102. Duration : 1 h 57 min

  103. Bit rate : 34.6 kb/s

  104. Count of elements : 1922

  105. Stream size : 29.1 MiB (0%)

  106. Title : cht&eng

  107. Language : Chinese

  108. Default : No

  109. Forced : No

  110. Original source medium : Blu-ray


  111. Text #3

  112. ID : 6

  113. ID in the original source medium : 4611 (0x1203)

  114. Format : PGS

  115. Muxing mode : zlib

  116. Codec ID : S_HDMV/PGS

  117. Codec ID/Info : Picture based subtitle format used on BDs/HD-DVDs

  118. Duration : 1 h 57 min

  119. Bit rate : 18.8 kb/s

  120. Count of elements : 1922

  121. Stream size : 15.8 MiB (0%)

  122. Title : chs

  123. Language : Chinese

  124. Default : No

  125. Forced : No

  126. Original source medium : Blu-ray


  127. Text #4

  128. ID : 7

  129. ID in the original source medium : 4612 (0x1204)

  130. Format : PGS

  131. Muxing mode : zlib

  132. Codec ID : S_HDMV/PGS

  133. Codec ID/Info : Picture based subtitle format used on BDs/HD-DVDs

  134. Duration : 1 h 57 min

  135. Bit rate : 19.2 kb/s

  136. Count of elements : 1922

  137. Stream size : 16.1 MiB (0%)

  138. Title : cht

  139. Language : Chinese

  140. Default : No

  141. Forced : No

  142. Original source medium : Blu-ray


  143. Text #5

  144. ID : 8

  145. ID in the original source medium : 4609 (0x1201)

  146. Format : PGS

  147. Muxing mode : zlib

  148. Codec ID : S_HDMV/PGS

  149. Codec ID/Info : Picture based subtitle format used on BDs/HD-DVDs

  150. Duration : 2 h 4 min

  151. Bit rate : 22.2 kb/s

  152. Count of elements : 2248

  153. Stream size : 19.7 MiB (0%)

  154. Title : eng

  155. Language : English

  156. Default : No

  157. Forced : No

  158. Original source medium : Blu-ray


  159. Menu

  160. 00:00:00.000 : en:第 01 章

  161. 00:08:10.823 : en:第 02 章

  162. 00:14:29.493 : en:第 03 章

  163. 00:20:47.037 : en:第 04 章

  164. 00:28:47.475 : en:第 05 章

  165. 00:38:09.287 : en:第 06 章

  166. 00:47:24.508 : en:第 07 章

  167. 00:55:15.478 : en:第 08 章

  168. 01:02:43.801 : en:第 09 章

  169. 01:13:43.669 : en:第 10 章

  170. 01:24:30.690 : en:第 11 章

  171. 01:31:08.254 : en:第 12 章

  172. 01:41:24.244 : en:第 13 章

  173. 01:51:04.616 : en:第 14 章

  174. 01:58:08.539 : en:第 15 章




复制代码



文件下载


除非特别注明,本文『王者之心[国语配音/中文字幕].Tristan.and.Isolde.2006.1080p.BluRay.x265.10bit.DTS.2Audio-btbt9527.com 9.98GB』来源于互联网机器人自动抓取,非本站原创。 浮游电影网不对本文拥有版权,如有侵犯,请联系邮箱:fuyouu#yandex.com[#换成@]投诉。我们会在15个工作日内删除。 但烦请转载时请标明出处:“本文转载于『浮游电影网』,原文地址:https://www.fuyouu.com/19254.html

评论吧骚年!

发表你的见解   

昵称*

E-mail*(建议输入,以便收到博主回复的提示邮件)

验证码*

您可以使用eMule或eMule Mod(Windows)、aMule(Win、Linux、Mac)等软件下载eD2k链接。。
eMule收藏集(.emulecollection)文件是您选中的所有链接的列表文件。eMule可以直接下载它们。
按住SHIFT键选择可以选中多个选择框。
可用文件名和大小选择器来选择文件。
文件名选择器帮您根据文件名称或后缀来选择文件。不分大小写。
符号使用:
和:空格( )、+
不包含:-
或:|
转义:一对英文引号("");
匹配开头:^
匹配结尾:$
例如:
选中所有名称中包含有“eMule”或“0.49c”字眼,但不包含有“exe”字眼的:emule|0.49c -exe
选中所有名称的开头是“eMule”,结尾是“0.49c”的:^emule 0.49c$
选中所有名称中带有“eMule 0.49c”的(必须是“eMule 0.49c”,中间没有别的字符,不能是“eMule fake 0.49c”),需要转义:"emule 0.49c"
大小选择器帮您根据文件大小选择文件。