当前位置: 首页 >> 海外电影 >> 摩托日记[中文字幕].The.Motorcycle.Diaries.2004.1080p.WEB-DL.AAC2.0.H.264-btbt9527.com 3.48GB >> 正文

摩托日记[中文字幕].The.Motorcycle.Diaries.2004.1080p.WEB-DL.AAC2.0.H.264-btbt9527.com 3.48GB

2021年12月10日 22:32:33     电影发布:来源于网络     电影分类:海外电影     评论(0)    

摩托日记[中文字幕].The.Motorcycle.Diaries.2004.1080p.WEB DL.AAC2.0.H.264 btbt9527.com 3.48GB 传记 冒险片 剧情片 海外电影  第1张

◎译 名 摩托日记 / 哲古华拉少年日记(港) / 骑士日记 / 革命前夕的摩托车日记(台) / 机车环游日记 / The Motorcycle Diaries / 摩托车日记

◎片 名 Diarios de motocicleta

◎年 代 2004

◎产 地 阿根廷 / 美国 / 智利 / 秘鲁 / 巴西 / 英国 / 德国 / 法国

◎类 别 剧情 / 传记 / 冒险

◎语 言 奇楚亚语 / 西班牙语

◎上映日期 2004-01-15(圣丹斯电影节)

◎IMDb链接 https://www.imdb.com/title/tt0318462/

◎豆瓣评分 8.4/10 (46010人评价)

◎豆瓣链接 https://movie.douban.com/subject/1309015/

◎片 长 126 分钟

◎导 演 沃尔特·塞勒斯 Walter Salles (id:1000292)

◎编 剧 何塞·里维拉 Jose Rivera (id:1055180)

约瑟·里韦拉 Jose Rivera (id:1209408)

切·格瓦拉 Ernesto 'Che' Guevara (id:1093711)

◎演 员 盖尔·加西亚·贝纳尔 Gael García Bernal (id:1041009)

罗德里戈·德拉·塞尔纳 Rodrigo De la Serna (id:1000585)

梅赛黛斯·莫朗 Mercedes Morán (id:1050731)

吉安·皮埃尔·诺厄尔 Jean Pierre Noher (id:1135161)

米娅·麦斯特罗 Mía Maestro (id:1018115)

索菲亚·贝托洛托 Sofia Bertolotto (id:1398942)

安托里娜·科斯塔 Antonella Costa (id:1032569)

Brandon Cruz Brandon Cruz (id:1018280)

Ricardo Díaz Mourelle Ricardo Díaz Mourelle (id:1344173)

Facundo Espinosa Facundo Espinosa (id:1081297)

Marina Glezer Marina Glezer (id:1098850)

Natalia Lobo Natalia Lobo (id:1121152)

Bárbara Lombardo Bárbara Lombardo (id:1173779)

Gustavo Pastorini Gustavo Pastorini (id:1190814)

Oscar Alegre Oscar Alegre (id:1276958)

瑞贝卡·耶得汉姆 Rebecca Yeldham (id:1050455)

保罗·韦伯斯特 Paul Webster (id:1050494)

丹尼尔·布尔曼 Daniel Burman (id:1050303)

罗伯特·雷德福 Robert Redford (id:1053617)

凯伦·滕克霍夫 Karen Tenkhoff (id:1299054)

埃德加·特南鲍姆 Edgard Tenenbaum (id:1299048)

迈克尔·诺季克 Michael Nozik (id:1293319)

古斯塔沃·桑多拉拉 Gustavo Santaolalla (id:1023055)

埃里克·戈蒂耶 Eric Gautier (id:1284627)

丹尼尔·雷森德 Daniel Rezende (id:1304333)

Coca Oderigo Coca Oderigo (id:1303248)

Maria Eugenia Sueiro Maria Eugenia Sueiro (id:1036260)

Laurent Ott Laurent Ott (id:1293719)

Carlos Conti Carlos Conti (id:1281163)

Marisa Urruti Marisa Urruti (id:1302649)

Beatriz De Benedetto Beatriz De Benedetto (id:1281977)

Marisa Amenta Marisa Amenta (id:1277150)

Araceli Farace Araceli Farace (id:1302583)

路易吉·洛切蒂 Luigi Rocchetti (id:1295838)

Federico Berón (id:1221172)

Sara Rossi Sara Rossi (id:1147352)

Pablo Ramos Pablo Ramos (id:1140253)

Claudio Leiva Araos Claudio Leiva Araos (id:1202689)

茱莉亚·索罗门诺芙 Julia Solomonoff (id:1298044)

◎标 签 格瓦拉 / 传记 / 阿根廷 / 旅行 / 青春 / 摩托日记 / 南美 / 成长

◎简 介

电影讲述了一次南美旅程如何激发了切格瓦拉全新的世界观,使得革命热情开始在他心中萌芽生长。格瓦拉(盖尔·加西亚·贝纳尔 Gael García Bernal 饰)当年23岁,意气风发,踌躇满怀,是一个医学院的学生。他对外面的世界抱有强烈的好奇心,于是和朋友艾伯特踏上了拉丁美洲的长长一串旅途中。他们骑上摩托车,风驰电掣的出发了,却不料摩托车很快就报了废。但这却一点没有影响年轻人的激情,二人靠搭便车来完成剩下的旅程。穿过拉丁美洲古老的文明遗址,穿梭于各个国家各色人群中间,他们开始真切感受到社会的真相、生活的苦难。当深入到亚马逊河流域的麻风病人区时,他们被所见所闻深深震撼。切格瓦拉开始思考宏大深奥的命题:人类、社会、经济、文明,人类的苦难、快乐的定义……

◎获奖情况 (共15项)

第77届奥斯卡金像奖 (2005)

最佳改编剧本(提名)

└──约瑟·里韦拉 (id:1209408)

最佳原创歌曲

└──豪尔赫 德雷克斯勒 (id:1050715)

第57届戛纳电影节 (2004)

主竞赛单元 金棕榈奖(提名)

└──沃尔特·塞勒斯 (id:1000292)

凡尔根奖

└──埃里克·戈蒂耶 (id:1284627)

天主教人道精神奖

└──沃尔特·塞勒斯 (id:1000292)

Fran?ois Chalais Award

└──沃尔特·塞勒斯 (id:1000292)

第62届金球奖 (2005)

电影类 最佳外语片(提名)

第58届英国电影学院奖 (2005)

电影奖 最佳影片(提名)

电影奖 最佳男主角(提名)

└──盖尔·加西亚·贝纳尔 (id:1041009)

电影奖 最佳男配角(提名)

└──罗德里戈·德拉·塞尔纳 (id:1000585)

电影奖 最佳改编剧本(提名)

└──何塞·里维拉 (id:1295718)

电影奖 最佳非英语

电影奖 最佳摄影(提名)

└──埃里克·戈蒂耶 (id:1284627)

电影奖 最佳原创音乐

└──古斯塔沃·桑多拉拉 (id:1023055)

第52届圣塞巴斯蒂安国际电影节 (2004)

观众选择奖

└──沃尔特·塞勒斯 (id:1000292)

  1. ##### MediaInfo ######

  2. General

  3. Unique ID : 35717576128626207193497292245747156358 (0x1ADEF476FE7A6CC3E34F41E39114C586)

  4. Complete name : [email protected]ome.mkv

  5. Format : Matroska

  6. Format version : Version 4

  7. File size : 3.48 GiB

  8. Duration : 2 h 5 min

  9. Overall bit rate : 3 953 kb/s

  10. Encoded date : UTC 2021-12-05 11:26:13

  11. Writing application : mkvmerge v56.1.0 ('My Friend') 64-bit

  12. Writing library : libebml v1.4.2 + libmatroska v1.6.4


  13. Video

  14. ID : 1

  15. Format : AVC

  16. Format/Info : Advanced Video Codec

  17. Format profile : [email protected]

  18. Format settings : CABAC / 1 Ref Frames

  19. Format settings, CABAC : Yes

  20. Format settings, Reference frames : 1 frame

  21. Format settings, GOP : M=1, N=60

  22. Codec ID : V_MPEG4/ISO/AVC

  23. Duration : 2 h 5 min

  24. Bit rate mode : Constant

  25. Bit rate : 4 000 kb/s

  26. Width : 1 920 pixels

  27. Height : 1 080 pixels

  28. Display aspect ratio : 16:9

  29. Frame rate mode : Constant

  30. Frame rate : 29.970 (30000/1001/53354) FPS

  31. Color space : YUV

  32. Chroma subsampling : 4:2:0

  33. Bit depth : 8 bits

  34. Scan type : Progressive

  35. Bits/(Pixel*Frame) : 0.064

  36. Stream size : 3.36 GiB (97%)

  37. Language : English

  38. Default : Yes

  39. Forced : No


  40. Audio

  41. ID : 2

  42. Format : AAC LC

  43. Format/Info : Advanced Audio Codec Low Complexity

  44. Codec ID : A_AAC-2

  45. Duration : 2 h 5 min

  46. Bit rate : 125 kb/s

  47. Channel(s) : 2 channels

  48. Channel layout : L R

  49. Sampling rate : 48.0 kHz

  50. Frame rate : 46.875 FPS (1024 SPF)

  51. Compression mode : Lossy

  52. Stream size : 113 MiB (3%)

  53. Language : Spanish

  54. Default : Yes

  55. Forced : No


  56. Text #1

  57. ID : 3

  58. Format : UTF-8

  59. Codec ID : S_TEXT/UTF8

  60. Codec ID/Info : UTF-8 Plain Text

  61. Duration : 1 h 57 min

  62. Bit rate : 49 b/s

  63. Count of elements : 1643

  64. Stream size : 42.3 KiB (0%)

  65. Title : Chinese Simplified

  66. Language : Chinese

  67. Default : Yes

  68. Forced : No


  69. Text #2

  70. ID : 4

  71. Format : UTF-8

  72. Codec ID : S_TEXT/UTF8

  73. Codec ID/Info : UTF-8 Plain Text

  74. Duration : 1 h 57 min

  75. Bit rate : 49 b/s

  76. Count of elements : 1643

  77. Stream size : 42.3 KiB (0%)

  78. Title : Chinese Traditional

  79. Language : Chinese

  80. Default : No

  81. Forced : No




复制代码



文件下载


除非特别注明,本文『摩托日记[中文字幕].The.Motorcycle.Diaries.2004.1080p.WEB-DL.AAC2.0.H.264-btbt9527.com 3.48GB』来源于互联网机器人自动抓取,非本站原创。 浮游电影网不对本文拥有版权,如有侵犯,请联系邮箱:fuyouu#yandex.com[#换成@]投诉。我们会在15个工作日内删除。 但烦请转载时请标明出处:“本文转载于『浮游电影网』,原文地址:https://www.fuyouu.com/19252.html

评论吧骚年!

发表你的见解   

昵称*

E-mail*(建议输入,以便收到博主回复的提示邮件)

验证码*

您可以使用eMule或eMule Mod(Windows)、aMule(Win、Linux、Mac)等软件下载eD2k链接。。
eMule收藏集(.emulecollection)文件是您选中的所有链接的列表文件。eMule可以直接下载它们。
按住SHIFT键选择可以选中多个选择框。
可用文件名和大小选择器来选择文件。
文件名选择器帮您根据文件名称或后缀来选择文件。不分大小写。
符号使用:
和:空格( )、+
不包含:-
或:|
转义:一对英文引号("");
匹配开头:^
匹配结尾:$
例如:
选中所有名称中包含有“eMule”或“0.49c”字眼,但不包含有“exe”字眼的:emule|0.49c -exe
选中所有名称的开头是“eMule”,结尾是“0.49c”的:^emule 0.49c$
选中所有名称中带有“eMule 0.49c”的(必须是“eMule 0.49c”,中间没有别的字符,不能是“eMule fake 0.49c”),需要转义:"emule 0.49c"
大小选择器帮您根据文件大小选择文件。