当前位置: 首页 >> 海外电影 >> 荒野有情天[中文字幕].The.Earthling.1980.US.Cut.1080p.BluRay.x265.10bit.DTS.2.0-btbt9527.com 6.72GB >> 正文

荒野有情天[中文字幕].The.Earthling.1980.US.Cut.1080p.BluRay.x265.10bit.DTS.2.0-btbt9527.com 6.72GB

2021年12月10日 22:31:10     电影发布:来源于网络     电影分类:海外电影     评论(0)    

荒野有情天[中文字幕].The.Earthling.1980.US.Cut.1080p.BluRay.x265.10bit.DTS.2.0 btbt9527.com 6.72GB 冒险片 剧情片 海外电影  第1张

◎译 名 荒野有情天 / 天涯一孤雏

◎片 名 The Earthling

◎年 代 1980

◎产 地 澳大利亚 / 美国

◎类 别 剧情 / 冒险

◎语 言 英语

◎上映日期 1980-07-24(澳大利亚)

◎IMDb链接 https://www.imdb.com/title/tt0080671/

◎豆瓣评分 8.5/10 (1168人评价)

◎豆瓣链接 https://movie.douban.com/subject/1297440/

◎片 长 97 分钟

◎导 演 彼特·克林逊 Peter Collinson (id:1000838)

◎编 剧 Lanny Cotler Lanny Cotler (id:1011842)

◎演 员 瑞克·斯克路德 Ricky Schroder (id:1000181)

杰克·汤普森 Jack Thompson (id:1152253)

威廉·霍尔登 William Holden (id:1002737)

Jack Thompson (id:1230888)

雷德蒙德·菲利普斯 Redmond Phillips (id:1127377)

Alwyn Kurts Alwyn Kurts (id:1110106)

Pat Evison Pat Evison (id:1087592)

Willie Fennell Willie Fennell (id:1086649)

Tui Bow Tui Bow (id:1078101)

雷·巴雷特 Ray Barrett (id:1061685)

萨缪尔·Z·阿克夫 Samuel Z. Arkoff (id:1019122)

Dick DeBenedictis Dick DeBenedictis (id:1056108)

唐纳德·麦卡尔平 Donald McAlpine (id:1276558)

弗兰克·莫瑞斯 Frank Morriss (id:1292571)

Nicholas Beauman Nicholas Beauman (id:1278165)

David Copping David Copping (id:1281244)

Bernard Hides Bernard Hides (id:1013146)

Judith Dorsman Judith Dorsman (id:1282621)

Judy Lovell Judy Lovell (id:1290361)

Steve E. Andrews Steve E. Andrews (id:1277257)

◎标 签 澳大利亚 / 成长 / 经典 / 感人 / 澳大利亚电影 / 美国 / 在自然中我们要学得东西还的很多! / 正大剧场

◎简 介

在去森林里露营的途中,小男孩肖恩(瑞克·斯克路德 Rick Schroder 饰)同父母一起遭遇了可怕的车祸,在车祸中,肖恩的父母双双身亡,不知是幸还是不幸,肖恩活了下来。在偌大的原始森林里,小小的男孩形单影只的徘徊着。这一切都被帕特瑞克(威廉·霍尔登 William Holden 饰)看在眼里。帕特瑞克对自己的重病心知肚明,也明白自己已经时日无多,所以他来到此处,希望能在故乡的土地上安然长眠。

就这样,属于帕特瑞克和肖恩的旅程开始了,一个走向新生,而另一个走向终结。在旅程中,帕特瑞克不断的向肖恩传授着在丛林里生存下去的要诀,而肖恩也在学习的同时不断的磨练的内心。一段旅途两个终点,他们能够顺利抵达各自的目的地吗?

  1. ##### MediaInfo ######

  2. General

  3. Unique ID : 194878304671863078849359307249559713465 (0x929C323D4D5741A741A1A16FFD9EB6B9)

  4. Complete name : [email protected]MKVHome.mkv

  5. Format : Matroska

  6. Format version : Version 4

  7. File size : 6.72 GiB

  8. Duration : 1 h 37 min

  9. Overall bit rate : 9 899 kb/s

  10. Encoded date : UTC 2021-11-29 09:32:25

  11. Writing application : mkvmerge v56.1.0 ('My Friend') 64-bit

  12. Writing library : libebml v1.4.2 + libmatroska v1.6.4


  13. Video

  14. ID : 1

  15. Format : HEVC

  16. Format/Info : High Efficiency Video Coding

  17. Format profile : Main [email protected]@Main

  18. Codec ID : V_MPEGH/ISO/HEVC

  19. Duration : 1 h 37 min

  20. Bit rate : 8 342 kb/s

  21. Width : 1 920 pixels

  22. Height : 1 036 pixels

  23. Display aspect ratio : 1.85:1

  24. Frame rate mode : Constant

  25. Frame rate : 23.976 (24000/1001/53354) FPS

  26. Color space : YUV

  27. Chroma subsampling : 4:2:0

  28. Bit depth : 10 bits

  29. Bits/(Pixel*Frame) : 0.175

  30. Stream size : 5.66 GiB (84%)

  31. Writing library : x265 3.5+2-g2b25c9ba0+45:[Windows][GCC 10.2.0][64 bit] Yuuki 10bit+8bit+12bit

  32. Encoding settings : rc=crf / crf=22.2000 / qcomp=0.60 / qpstep=4 / stats-write=0 / stats-read=0 / no-lossless / no-cu-lossless / aq-mode=3 / aq-strength=0.90 / cbqpoffs=0 / crqpoffs=0 / ipratio=1.40 / pbratio=1.30 / psy-rd=2.00 / psy-rdoq=0.00 / deblock=0:0 / ref=6 / limit-refs=1 / no-limit-modes / bframes=10 / b-adapt=2 / bframe-bias=0 / b-pyramid / b-intra / weightp / weightb / min-keyint=24 / max-keyint=240 / rc-lookahead=24 / gop-lookahead=0 / NTMzNTQ=uuDQuD2mJt9fsCf / scenecut=40 / hist-scenecut=0 / radl=0 / max-cu-size=64 / min-cu-size=8 / me=3 / subme=7 / merange=48 / rdoq-level=0 / rd=4 / rdpenalty=0 / dynamic-rd=0.00 / no-rd-refine / ----- / cutree / sao / no-rect / no-amp / no-open-gop / wpp / no-pmode / no-pme / no-psnr / no-ssim / nr-intra=0 / nr-inter=0 / no-constrained-intra / no-strong-intra-smoothing / max-tu-size=32 / tu-inter-depth=1 / tu-intra-depth=1 / limit-tu=0 / qg-size=32 / qpmax=69 / qpmin=0 / ----- / cpuid=533541111039 / frame-threads=4 / numa-pools=+ / log-level=2 / input-csp=1 / input-res=1920x1036 / interlace=0 / level-idc=0 / high-tier=1 / uhd-bd=0 / no-allow-non-conformance / no-repeat-headers / aud / no-hrd / info / hash=0 / no-temporal-layers / lookahead-slices=0 / no-splice / no-intra-refresh / no-ssim-rd / signhide / no-tskip / max-merge=3 / temporal-mvp / no-frame-dup / no-hme / no-analyze-src-pics / no-sao-non-deblock / selective-sao=4 / early-skip / rskip / no-fast-intra / no-tskip-fast / no-splitrd-skip / zone-count=0 / no-strict-cbr / no-rc-grain / no-const-vbv / sar=0 / overscan=0 / videoformat=5 / range=0 / colorprim=2 / transfer=2 / colormatrix=2 / chromaloc=0 / display-window=0 / cll=0,0 / min-luma=0 / max-luma=1023 / log2-max-poc-lsb=8 / vui-timing-info / vui-hrd-info / slices=1 / no-opt-qp-pps / no-opt-ref-list-length-pps / no-multi-pass-opt-rps / scenecut-bias=0.05 / hist-threshold=0.03 / no-opt-cu-delta-qp / no-aq-motion / no-hdr10 / no-hdr10-opt / no-dhdr10-opt / no-idr-recovery-sei / analysis-reuse-level=0 / analysis-save-reuse-level=0 / analysis-load-reuse-level=0 / scale-factor=0 / refine-intra=0 / refine-inter=0 / refine-mv=1 / refine-ctu-distortion=0 / no-limit-sao / ctu-info=0 / no-lowpass-dct / refine-analysis-type=0 / copy-pic=1 / max-ausize-factor=1.0 / no-dynamic-refine / no-single-sei / no-hevc-aq / no-svt / no-field / qp-adaptation-range=1.00 / scenecut-aware-qp=0conformance-window-offsets / right=0 / bottom=0 / NTMzNTQ= / decoder-max-rate=0 / no-vbv-live-multi-pass

  33. Default : Yes

  34. Forced : No


  35. Audio

  36. ID : 2

  37. Format : DTS

  38. Format/Info : Digital Theater Systems

  39. Codec ID : A_DTS

  40. Duration : 1 h 36 min

  41. Bit rate mode : Constant

  42. Bit rate : 1 509 kb/s

  43. Channel(s) : 2 channels

  44. Channel layout : L R

  45. Sampling rate : 48.0 kHz

  46. Frame rate : 93.750 FPS (512 SPF)

  47. Bit depth : 16 bits

  48. Compression mode : Lossy

  49. Delay relative to video : 10 s 890 ms

  50. Stream size : 1.02 GiB (15%)

  51. Title : eng

  52. Language : English

  53. Default : Yes

  54. Forced : No


  55. Text #1

  56. ID : 3

  57. Format : PGS

  58. Muxing mode : zlib

  59. Codec ID : S_HDMV/PGS

  60. Codec ID/Info : Picture based subtitle format used on BDs/HD-DVDs

  61. Duration : 1 h 34 min

  62. Bit rate : 27.1 kb/s

  63. Count of elements : 1780

  64. Stream size : 18.4 MiB (0%)

  65. Title : chs&eng

  66. Language : Chinese

  67. Default : Yes

  68. Forced : No


  69. Text #2

  70. ID : 4

  71. Format : PGS

  72. Muxing mode : zlib

  73. Codec ID : S_HDMV/PGS

  74. Codec ID/Info : Picture based subtitle format used on BDs/HD-DVDs

  75. Duration : 1 h 34 min

  76. Bit rate : 27.3 kb/s

  77. Count of elements : 1780

  78. Stream size : 18.5 MiB (0%)

  79. Title : cht&eng

  80. Language : Chinese

  81. Default : No

  82. Forced : No


  83. Text #3

  84. ID : 5

  85. Format : PGS

  86. Muxing mode : zlib

  87. Codec ID : S_HDMV/PGS

  88. Codec ID/Info : Picture based subtitle format used on BDs/HD-DVDs

  89. Duration : 1 h 34 min

  90. Bit rate : 16.7 kb/s

  91. Count of elements : 1780

  92. Stream size : 11.3 MiB (0%)

  93. Title : chs

  94. Language : Chinese

  95. Default : No

  96. Forced : No


  97. Text #4

  98. ID : 6

  99. Format : PGS

  100. Muxing mode : zlib

  101. Codec ID : S_HDMV/PGS

  102. Codec ID/Info : Picture based subtitle format used on BDs/HD-DVDs

  103. Duration : 1 h 34 min

  104. Bit rate : 16.9 kb/s

  105. Count of elements : 1780

  106. Stream size : 11.5 MiB (0%)

  107. Title : cht

  108. Language : Chinese

  109. Default : No

  110. Forced : No


  111. Text #5

  112. ID : 7

  113. Format : PGS

  114. Muxing mode : zlib

  115. Codec ID : S_HDMV/PGS

  116. Codec ID/Info : Picture based subtitle format used on BDs/HD-DVDs

  117. Duration : 1 h 34 min

  118. Bit rate : 14.3 kb/s

  119. Count of elements : 1746

  120. Stream size : 9.67 MiB (0%)

  121. Title : eng

  122. Language : English

  123. Default : No

  124. Forced : No


  125. Menu

  126. 00:00:00.000 : 第 01 章

  127. 00:13:36.774 : 第 02 章

  128. 00:25:13.803 : 第 03 章

  129. 00:32:03.963 : 第 04 章

  130. 00:43:01.036 : 第 05 章

  131. 00:58:04.522 : 第 06 章

  132. 01:12:26.592 : 第 07 章

  133. 01:22:52.842 : 第 08 章




复制代码



文件下载


除非特别注明,本文『荒野有情天[中文字幕].The.Earthling.1980.US.Cut.1080p.BluRay.x265.10bit.DTS.2.0-btbt9527.com 6.72GB』来源于互联网机器人自动抓取,非本站原创。 浮游电影网不对本文拥有版权,如有侵犯,请联系邮箱:fuyouu#yandex.com[#换成@]投诉。我们会在15个工作日内删除。 但烦请转载时请标明出处:“本文转载于『浮游电影网』,原文地址:https://www.fuyouu.com/19251.html

评论吧骚年!

发表你的见解   

昵称*

E-mail*(建议输入,以便收到博主回复的提示邮件)

验证码*

您可以使用eMule或eMule Mod(Windows)、aMule(Win、Linux、Mac)等软件下载eD2k链接。。
eMule收藏集(.emulecollection)文件是您选中的所有链接的列表文件。eMule可以直接下载它们。
按住SHIFT键选择可以选中多个选择框。
可用文件名和大小选择器来选择文件。
文件名选择器帮您根据文件名称或后缀来选择文件。不分大小写。
符号使用:
和:空格( )、+
不包含:-
或:|
转义:一对英文引号("");
匹配开头:^
匹配结尾:$
例如:
选中所有名称中包含有“eMule”或“0.49c”字眼,但不包含有“exe”字眼的:emule|0.49c -exe
选中所有名称的开头是“eMule”,结尾是“0.49c”的:^emule 0.49c$
选中所有名称中带有“eMule 0.49c”的(必须是“eMule 0.49c”,中间没有别的字符,不能是“eMule fake 0.49c”),需要转义:"emule 0.49c"
大小选择器帮您根据文件大小选择文件。