当前位置: 首页 >> 港台电影 >> 陪你很久很久[国语配音/中文字幕].Stand.by.Me.2019.WEB-DL.4K.H265.DDP.2.0-btbt9527.com 10.16GB >> 正文

陪你很久很久[国语配音/中文字幕].Stand.by.Me.2019.WEB-DL.4K.H265.DDP.2.0-btbt9527.com 10.16GB

2021年12月10日 22:28:18     电影发布:来源于网络     电影分类:港台电影     评论(0)    

陪你很久很久[国语配音/中文字幕].Stand.by.Me.2019.WEB DL.4K.H265.DDP.2.0 btbt9527.com 10.16GB 爱情片 喜剧片 港台电影  第1张

◎译 名 陪你很久很久 / 九饼、薄荷与夏天 / Stand by Me

◎年 代 2019

◎产 地 中国台湾

◎类 别 喜剧 / 爱情

◎语 言 汉语普通话

◎上映日期 2021-09-09(中国大陆) / 2019-10-25(中国台湾) / 2019-07-05(台北电影节)

◎IMDb链接 https://www.imdb.com/title/tt11082644/

◎豆瓣评分 5.0/10 (4697人评价)

◎豆瓣链接 https://movie.douban.com/subject/30209018/

◎片 长 104分钟

◎导 演 赖孟杰 Meng-Chieh Lai (id:1391013)

◎编 剧 赖孟杰 Meng-Chieh Lai (id:1391013)

刘雪容 Hsueh Jung Liu (id:1369336)

宋小君 Xiaojun Song (id:1460945)

◎演 员 李淳 Mason Lee (id:1316450)

邵雨薇 Yu-Wei Shao (id:1342329)

蔡瑞雪 Snowbaby (id:1421200)

宋柏纬 Edison Song (id:1370066)

屈中恒 Chung-heng Chu (id:1275593)

胡玮杰 Wei-Jie Hu (id:1352914)

柯佳嬿 Alice Ko (id:1274458)

林鹤轩 He-Hsuan Lin (id:1371838)

刘纪范 Amanda Liu (id:1395826)

王家梁 Edison Wang (id:1359345)

林仕肯 Shih-Ken Lin (id:1452665)

陈俊宏 Chun-Hung Chen (id:1405906)

◎标 签 青春 / 爱情 / 校园 / 台湾 / 喜剧 / 轻喜剧 / 邵雨薇 / 李淳

◎简 介

性格憨直的赵玖秉的整个青春,都是陪着梁薄荷一起度过的,两个青梅竹马的伙伴一路相伴成长,他们的欢笑和眼泪都与彼此有关。上了同一所大学后,一连串的意外事件导致薄荷的初恋被帅气的学长夺走。抓不到,又舍不得放手的九饼决定不再沉默,要为自己的女神奋力一搏。偏偏在薄荷眼中,他只是一个幼稚、长不大的男生。从恋人未满回归到普通朋友,从亲密无间到渐行渐远,不甘心的九饼依旧谱写出一支没有终点、只有无止尽陪伴的追爱练习曲。

  1. ##### MediaInfo ######

  2. General

  3. Unique ID : 277665030538076248312591457707856617178 (0xD0E456F56A710BEEDBD31B935955DEDA)

  4. Complete name : Stand by Me 2019 WEB-DL 4K H265 DDP [email protected]

  5. Format : Matroska

  6. Format version : Version 4

  7. File size : 10.2 GiB

  8. Duration : 1 h 42 min

  9. Overall bit rate : 14.2 Mb/s

  10. Encoded date : UTC 2021-12-09 16:28:11

  11. Writing application : mkvmerge v62.0.0 ('Apollo') 64-bit

  12. Writing library : libebml v1.4.2 + libmatroska v1.6.4


  13. Video

  14. ID : 1

  15. Format : HEVC

  16. Format/Info : High Efficiency Video Coding

  17. Format profile : [email protected]@Main

  18. Codec ID : V_MPEGH/ISO/HEVC

  19. Duration : 1 h 42 min

  20. Bit rate : 13.8 Mb/s

  21. Width : 3 840 pixels

  22. Height : 1 608 pixels

  23. Display aspect ratio : 2.40:1

  24. Frame rate mode : Constant

  25. Frame rate : 25.000 FPS

  26. Color space : YUV

  27. Chroma subsampling : 4:2:0

  28. Bit depth : 8 bits

  29. Bits/(Pixel*Frame) : 0.089

  30. Stream size : 9.84 GiB (97%)

  31. Default : Yes

  32. Forced : No


  33. Audio #1

  34. ID : 2

  35. Format : E-AC-3

  36. Format/Info : Enhanced AC-3

  37. Commercial name : Dolby Digital Plus

  38. Codec ID : A_EAC3

  39. Duration : 1 h 42 min

  40. Bit rate mode : Constant

  41. Bit rate : 256 kb/s

  42. Channel(s) : 2 channels

  43. Channel layout : L R

  44. Sampling rate : 48.0 kHz

  45. Frame rate : 31.250 FPS (1536 SPF)

  46. Compression mode : Lossy

  47. Stream size : 187 MiB (2%)

  48. Language : Chinese

  49. Service kind : Complete Main

  50. Default : Yes

  51. Forced : No


  52. Audio #2

  53. ID : 3

  54. Format : AAC LC

  55. Format/Info : Advanced Audio Codec Low Complexity

  56. Codec ID : A_AAC-2

  57. Duration : 1 h 42 min

  58. Bit rate : 192 kb/s

  59. Channel(s) : 2 channels

  60. Channel layout : L R

  61. Sampling rate : 44.1 kHz

  62. Frame rate : 43.066 FPS (1024 SPF)

  63. Compression mode : Lossy

  64. Stream size : 139 MiB (1%)

  65. Language : Chinese

  66. Default : No

  67. Forced : No




复制代码



文件下载


除非特别注明,本文『陪你很久很久[国语配音/中文字幕].Stand.by.Me.2019.WEB-DL.4K.H265.DDP.2.0-btbt9527.com 10.16GB』来源于互联网机器人自动抓取,非本站原创。 浮游电影网不对本文拥有版权,如有侵犯,请联系邮箱:fuyouu#yandex.com[#换成@]投诉。我们会在15个工作日内删除。 但烦请转载时请标明出处:“本文转载于『浮游电影网』,原文地址:https://www.fuyouu.com/19249.html

评论吧骚年!

发表你的见解   

昵称*

E-mail*(建议输入,以便收到博主回复的提示邮件)

验证码*

您可以使用eMule或eMule Mod(Windows)、aMule(Win、Linux、Mac)等软件下载eD2k链接。。
eMule收藏集(.emulecollection)文件是您选中的所有链接的列表文件。eMule可以直接下载它们。
按住SHIFT键选择可以选中多个选择框。
可用文件名和大小选择器来选择文件。
文件名选择器帮您根据文件名称或后缀来选择文件。不分大小写。
符号使用:
和:空格( )、+
不包含:-
或:|
转义:一对英文引号("");
匹配开头:^
匹配结尾:$
例如:
选中所有名称中包含有“eMule”或“0.49c”字眼,但不包含有“exe”字眼的:emule|0.49c -exe
选中所有名称的开头是“eMule”,结尾是“0.49c”的:^emule 0.49c$
选中所有名称中带有“eMule 0.49c”的(必须是“eMule 0.49c”,中间没有别的字符,不能是“eMule fake 0.49c”),需要转义:"emule 0.49c"
大小选择器帮您根据文件大小选择文件。