当前位置: 首页 >> 欧美电影 >> 边境杀手[中文字幕].Sicario.2015.1080p.BluRay.x265.10bit.DTS-btbt9527.com 4.39GB >> 正文

边境杀手[中文字幕].Sicario.2015.1080p.BluRay.x265.10bit.DTS-btbt9527.com 4.39GB

2021年12月10日 22:27:15     电影发布:来源于网络     电影分类:欧美电影     评论(0)    

边境杀手[中文字幕].Sicario.2015.1080p.BluRay.x265.10bit.DTS btbt9527.com 4.39GB 犯罪片 惊悚片 剧情片 欧美电影  第1张

◎译 名 边境杀手 / 毒裁者(港) / 怒火边界(台) / 西卡里奥

◎片 名 Sicario

◎年 代 2015

◎产 地 美国 / 墨西哥 / 中国香港

◎类 别 剧情 / 惊悚 / 犯罪

◎语 言 英语 / 西班牙语

◎上映日期 2015-05-19(戛纳电影节) / 2015-10-02(美国)

◎IMDb链接 https://www.imdb.com/title/tt3397884/

◎豆瓣评分 7.7/10 (117573人评价)

◎豆瓣链接 https://movie.douban.com/subject/25881247/

◎片 长 121分钟

◎导 演 丹尼斯·维伦纽瓦 Denis Villeneuve (id:1028333)

◎编 剧 泰勒·谢里丹 Taylor Sheridan (id:1340379)

约翰·约翰逊 Jóhann Jóhannsson (id:1331916)

◎演 员 艾米莉·布朗特 Emily Blunt (id:1041022)

本尼西奥·德尔·托罗 Benicio del Toro (id:1041005)

乔什·布洛林 Josh Brolin (id:1004568)

维克多·加博 Victor Garber (id:1031913)

乔·博恩瑟 Jon Bernthal (id:1049679)

丹尼尔·卡卢亚 Daniel Kaluuya (id:1316928)

杰弗里·多诺万 Jeffrey Donovan (id:1044732)

劳尔·特鲁希洛 Raoul Trujillo (id:1157871)

胡里奥·赛迪罗 Julio Cedillo (id:1332387)

汉克·罗杰森 Hank Rogerson (id:1295934)

马克斯米利亚诺·赫尔南德斯 Maximiliano Hernández (id:1339359)

艾伦·D·柏温 Alan D. Purwin (id:1294989)

迪兰·科宁 Dylan Kenin (id:1328497)

马修·佩奇 Matthew Page (id:1336231)

约翰·彼得·贝尔纳多 John Peter Bernardo (id:1038784)

洛拉·玛汀内斯-康宁安 Lora Martinez-Cunningham (id:1391559)

马蒂·林赛 Marty Lindsey (id:1118549)

亚历克斯·奈特 Alex Knight (id:1345301)

瑞欧·亚历山大 Rio Alexander (id:1385012)

萨拉·明妮奇 Sarah Minnich (id:1378752)

埃德加·阿雷拉 Edgar Arreola (id:1377670)

约翰·约翰逊 Jóhann Jóhannsson (id:1331916)

罗杰·狄金斯 Roger Deakins (id:1018197)

乔·沃克 Joe Walker (id:1336020)

阿兰·罗伯特·默里 Alan Robert Murray (id:1292770)

◎标 签 犯罪 / 美国 / 动作 / 暴力 / 剧情 / 毒品 / 2015 / 悬疑

◎简 介

在美国与墨西哥的边界有一块灰色地带,那里是毒贩和杀手们的天堂,他们在此交易火并,完全视法律为无物。凯特(艾米莉·布朗特 Emily Blunt 饰)是联邦调查局的探员,心里怀揣着惩奸除恶的正义理想,她来到此地,加入了联邦政府特种部队,成为了马特(乔什·布洛林 Josh Brolin 饰)的部下。

亚历桑德罗(本尼西奥·德尔·托罗 Benicio Del Toro 饰)是曾经卧底在毒枭身边的前任特工,马特找到了他,希望经验丰富的他能够成为行动小组的战略顾问,然而亲历过地狱的亚历桑德罗完全不按常理出牌,他的所作所为时常刺激着凯特脆弱而又敏感的神经。随着调查的深入,死亡的气息笼罩着行动组内的每一个人,一次又一次与死神擦肩而过,凯特的三观开始发生动摇。

◎获奖情况 (共28项)

第88届奥斯卡金像奖 (2016)

最佳摄影(提名)

└──罗杰·狄金斯 (id:1018197)

最佳音效剪辑(提名)

└──阿兰·罗伯特·默里 (id:1292770)

最佳原创配乐(提名)

└──约翰·约翰逊 (id:1331916)

第68届戛纳电影节 (2015)

主竞赛单元 金棕榈奖(提名)

└──丹尼斯·维伦纽瓦 (id:1028333)

第69届英国电影学院奖 (2016)

电影奖 最佳男配角(提名)

└──本尼西奥·德尔·托罗 (id:1041005)

电影奖 最佳摄影(提名)

└──罗杰·狄金斯 (id:1018197)

电影奖 最佳原创音乐(提名)

└──约翰·约翰逊 (id:1331916)

第68届美国编剧工会奖 (2016)

电影奖 最佳原创剧本(提名)

└──泰勒·谢里丹 (id:1340379)

第27届美国制片人工会奖 (2016)

最佳电影制片人奖(提名)

第30届美国摄影协会奖 (2016)

电影长片最佳摄影(提名)

└──罗杰·狄金斯 (id:1018197)

第66届美国剪辑工会奖 (2016)

剧情片最佳剪辑(提名)

第87届美国国家评论协会奖 (2015)

年度佳片

第21届美国评论家选择电影奖 (2016)

最佳影片(提名)

最佳动作片(提名)

动作片最佳女主角(提名)

└──艾米莉·布朗特 (id:1041022)

最佳摄影(提名)

└──罗杰·狄金斯 (id:1018197)

最佳配乐(提名)

第20届金卫星奖 (2016)

电影部门 最佳剪辑

第19届好莱坞电影奖 (2015)

年度男配角

└──本尼西奥·德尔·托罗 (id:1041005)

第14届华盛顿影评人协会奖 (2015)

最佳原创配乐

第28届芝加哥影评人协会奖 (2015)

最佳男配角

└──本尼西奥·德尔·托罗 (id:1041005)

第19届美国在线影评人协会奖 (2015)

最佳影片(提名)

最佳导演(提名)

└──丹尼斯·维伦纽瓦 (id:1028333)

最佳男配角(提名)

└──本尼西奥·德尔·托罗 (id:1041005)

最佳原创剧本(提名)

└──泰勒·谢里丹 (id:1340379)

最佳剪辑(提名)

└──乔·沃克 (id:1336020)

最佳摄影(提名)

└──罗杰·狄金斯 (id:1018197)

第6届豆瓣电影鑫像奖 (2016)

鑫豆单元 最佳配乐(提名)

  1. ##### MediaInfo ######

  2. General

  3. Unique ID : 12701480804404551780013428349348357333 (0x98E375A51F5E13CC75F61EC1BE424D5)

  4. Complete name : [email protected]

  5. Format : Matroska

  6. Format version : Version 4

  7. File size : 4.39 GiB

  8. Duration : 2 h 1 min

  9. Overall bit rate : 5 176 kb/s

  10. Movie name : Sicario - Blu-ray

  11. Encoded date : UTC 2021-11-29 03:39:42

  12. Writing application : mkvmerge v63.0.0 ('Everything') 64-bit

  13. Writing library : libebml v1.4.2 + libmatroska v1.6.4

  14. Cover : Yes

  15. Attachments : cover.jpg


  16. Video

  17. ID : 1

  18. Format : HEVC

  19. Format/Info : High Efficiency Video Coding

  20. Format profile : Main [email protected]@Main

  21. Codec ID : V_MPEGH/ISO/HEVC

  22. Duration : 2 h 1 min

  23. Bit rate : 3 598 kb/s

  24. Width : 1 920 pixels

  25. Height : 800 pixels

  26. Display aspect ratio : 2.40:1

  27. Frame rate mode : Constant

  28. Frame rate : 23.976 (24000/1001/53354) FPS

  29. Color space : YUV

  30. Chroma subsampling : 4:2:0

  31. Bit depth : 10 bits

  32. Bits/(Pixel*Frame) : 0.098

  33. Stream size : 3.05 GiB (70%)

  34. Writing library : x265 3.5+2-g2b25c9ba0+45:[Windows][GCC 10.2.0][64 bit] Yuuki 10bit+8bit+12bit

  35. Encoding settings : rc=crf / crf=16.0000 / qcomp=0.65 / qpstep=4 / stats-write=0 / stats-read=0 / no-lossless / no-cu-lossless / aq-mode=3 / aq-strength=0.80 / cbqpoffs=0 / crqpoffs=0 / ipratio=1.40 / pbratio=1.30 / psy-rd=2.00 / psy-rdoq=0.00 / deblock=0:0 / ref=6 / limit-refs=1 / no-limit-modes / bframes=8 / b-adapt=2 / bframe-bias=0 / b-pyramid / b-intra / weightp / weightb / min-keyint=24 / max-keyint=240 / rc-lookahead=24 / gop-lookahead=0 / NTMzNTQ=uuDQuD2mJt9fsCf / scenecut=40 / hist-scenecut=0 / radl=0 / max-cu-size=64 / min-cu-size=8 / me=3 / subme=7 / merange=48 / rdoq-level=0 / rd=4 / rdpenalty=0 / dynamic-rd=0.00 / no-rd-refine / ----- / cutree / sao / no-rect / no-amp / no-open-gop / wpp / no-pmode / pme / no-psnr / no-ssim / nr-intra=0 / nr-inter=0 / no-constrained-intra / no-strong-intra-smoothing / max-tu-size=32 / tu-inter-depth=1 / tu-intra-depth=1 / limit-tu=0 / qg-size=32 / qpmax=69 / qpmin=0 / ----- / cpuid=533541111039 / frame-threads=4 / numa-pools=+ / log-level=2 / input-csp=1 / input-res=1920x800 / interlace=0 / level-idc=0 / high-tier=1 / uhd-bd=0 / no-allow-non-conformance / no-repeat-headers / aud / no-hrd / info / hash=0 / no-temporal-layers / lookahead-slices=0 / no-splice / no-intra-refresh / no-ssim-rd / signhide / no-tskip / max-merge=3 / temporal-mvp / no-frame-dup / no-hme / no-analyze-src-pics / no-sao-non-deblock / selective-sao=4 / early-skip / rskip / no-fast-intra / no-tskip-fast / no-splitrd-skip / zone-count=0 / no-strict-cbr / no-rc-grain / no-const-vbv / sar=0 / overscan=0 / videoformat=5 / range=0 / colorprim=2 / transfer=2 / colormatrix=2 / chromaloc=0 / display-window=0 / cll=0,0 / min-luma=0 / max-luma=1023 / log2-max-poc-lsb=8 / vui-timing-info / vui-hrd-info / slices=1 / no-opt-qp-pps / no-opt-ref-list-length-pps / no-multi-pass-opt-rps / scenecut-bias=0.05 / hist-threshold=0.03 / no-opt-cu-delta-qp / no-aq-motion / no-hdr10 / no-hdr10-opt / no-dhdr10-opt / no-idr-recovery-sei / analysis-reuse-level=0 / analysis-save-reuse-level=0 / analysis-load-reuse-level=0 / scale-factor=0 / refine-intra=0 / refine-inter=0 / refine-mv=1 / refine-ctu-distortion=0 / no-limit-sao / ctu-info=0 / no-lowpass-dct / refine-analysis-type=0 / copy-pic=1 / max-ausize-factor=1.0 / no-dynamic-refine / no-single-sei / no-hevc-aq / no-svt / no-field / qp-adaptation-range=1.00 / scenecut-aware-qp=0conformance-window-offsets / right=0 / bottom=0 / NTMzNTQ= / decoder-max-rate=0 / no-vbv-live-multi-pass

  36. Default : Yes

  37. Forced : No


  38. Audio

  39. ID : 2

  40. Format : DTS

  41. Format/Info : Digital Theater Systems

  42. Codec ID : A_DTS

  43. Duration : 2 h 1 min

  44. Bit rate mode : Constant

  45. Bit rate : 1 510 kb/s

  46. Channel(s) : 6 channels

  47. Channel layout : C L R Ls Rs LFE

  48. Sampling rate : 48.0 kHz

  49. Frame rate : 93.750 FPS (512 SPF)

  50. Bit depth : 24 bits

  51. Compression mode : Lossy

  52. Stream size : 1.28 GiB (29%)

  53. Language : English

  54. Default : Yes

  55. Forced : No


  56. Text #1

  57. ID : 3

  58. ID in the original source medium : 4610 (0x1202)

  59. Format : PGS

  60. Muxing mode : zlib

  61. Codec ID : S_HDMV/PGS

  62. Codec ID/Info : Picture based subtitle format used on BDs/HD-DVDs

  63. Duration : 1 h 54 min

  64. Bit rate : 40.5 kb/s

  65. Count of elements : 2414

  66. Stream size : 33.2 MiB (1%)

  67. Title : chs&eng

  68. Language : Chinese

  69. Default : Yes

  70. Forced : No

  71. Original source medium : Blu-ray


  72. Text #2

  73. ID : 4

  74. ID in the original source medium : 4611 (0x1203)

  75. Format : PGS

  76. Muxing mode : zlib

  77. Codec ID : S_HDMV/PGS

  78. Codec ID/Info : Picture based subtitle format used on BDs/HD-DVDs

  79. Duration : 1 h 54 min

  80. Bit rate : 40.7 kb/s

  81. Count of elements : 2414

  82. Stream size : 33.3 MiB (1%)

  83. Title : cht&eng

  84. Language : Chinese

  85. Default : No

  86. Forced : No

  87. Original source medium : Blu-ray


  88. Text #3

  89. ID : 5

  90. ID in the original source medium : 4612 (0x1204)

  91. Format : PGS

  92. Muxing mode : zlib

  93. Codec ID : S_HDMV/PGS

  94. Codec ID/Info : Picture based subtitle format used on BDs/HD-DVDs

  95. Duration : 1 h 54 min

  96. Bit rate : 23.5 kb/s

  97. Count of elements : 2414

  98. Stream size : 19.3 MiB (0%)

  99. Title : chs

  100. Language : Chinese

  101. Default : No

  102. Forced : No

  103. Original source medium : Blu-ray


  104. Text #4

  105. ID : 6

  106. ID in the original source medium : 4613 (0x1205)

  107. Format : PGS

  108. Muxing mode : zlib

  109. Codec ID : S_HDMV/PGS

  110. Codec ID/Info : Picture based subtitle format used on BDs/HD-DVDs

  111. Duration : 1 h 54 min

  112. Bit rate : 23.7 kb/s

  113. Count of elements : 2414

  114. Stream size : 19.4 MiB (0%)

  115. Title : cht

  116. Language : Chinese

  117. Default : No

  118. Forced : No

  119. Original source medium : Blu-ray


  120. Text #5

  121. ID : 7

  122. ID in the original source medium : 4609 (0x1201)

  123. Format : PGS

  124. Muxing mode : zlib

  125. Codec ID : S_HDMV/PGS

  126. Codec ID/Info : Picture based subtitle format used on BDs/HD-DVDs

  127. Duration : 1 h 53 min

  128. Bit rate : 29.9 kb/s

  129. Count of elements : 2495

  130. Stream size : 24.3 MiB (1%)

  131. Title : eng

  132. Language : English

  133. Default : No

  134. Forced : No

  135. Original source medium : Blu-ray


  136. Menu

  137. 00:00:00.000 : en:Chapter 01

  138. 00:07:14.351 : en:Chapter 02

  139. 00:12:55.108 : en:Chapter 03

  140. 00:20:04.370 : en:Chapter 04

  141. 00:25:24.815 : en:Chapter 05

  142. 00:32:11.596 : en:Chapter 06

  143. 00:39:24.821 : en:Chapter 07

  144. 00:46:15.314 : en:Chapter 08

  145. 00:53:24.576 : en:Chapter 09

  146. 01:01:40.322 : en:Chapter 10

  147. 01:10:49.120 : en:Chapter 11

  148. 01:18:02.887 : en:Chapter 12

  149. 01:30:59.371 : en:Chapter 13

  150. 01:36:57.770 : en:Chapter 14

  151. 01:47:42.039 : en:Chapter 15

  152. 01:54:12.804 : en:Chapter 16


文件下载


除非特别注明,本文『边境杀手[中文字幕].Sicario.2015.1080p.BluRay.x265.10bit.DTS-btbt9527.com 4.39GB』来源于互联网机器人自动抓取,非本站原创。 浮游电影网不对本文拥有版权,如有侵犯,请联系邮箱:fuyouu#yandex.com[#换成@]投诉。我们会在15个工作日内删除。 但烦请转载时请标明出处:“本文转载于『浮游电影网』,原文地址:https://www.fuyouu.com/19248.html

评论吧骚年!

发表你的见解   

昵称*

E-mail*(建议输入,以便收到博主回复的提示邮件)

验证码*

您可以使用eMule或eMule Mod(Windows)、aMule(Win、Linux、Mac)等软件下载eD2k链接。。
eMule收藏集(.emulecollection)文件是您选中的所有链接的列表文件。eMule可以直接下载它们。
按住SHIFT键选择可以选中多个选择框。
可用文件名和大小选择器来选择文件。
文件名选择器帮您根据文件名称或后缀来选择文件。不分大小写。
符号使用:
和:空格( )、+
不包含:-
或:|
转义:一对英文引号("");
匹配开头:^
匹配结尾:$
例如:
选中所有名称中包含有“eMule”或“0.49c”字眼,但不包含有“exe”字眼的:emule|0.49c -exe
选中所有名称的开头是“eMule”,结尾是“0.49c”的:^emule 0.49c$
选中所有名称中带有“eMule 0.49c”的(必须是“eMule 0.49c”,中间没有别的字符,不能是“eMule fake 0.49c”),需要转义:"emule 0.49c"
大小选择器帮您根据文件大小选择文件。