当前位置: 首页 >> 欧美电影 >> 惊声尖叫4[中文字幕].Scream.4.2011.1080p.BluRay.x265.10bit.DTS-btbt9527.com 7.47GB >> 正文

惊声尖叫4[中文字幕].Scream.4.2011.1080p.BluRay.x265.10bit.DTS-btbt9527.com 7.47GB

2021年12月10日 22:26:04     电影发布:来源于网络     电影分类:欧美电影     评论(0)    

惊声尖叫4[中文字幕].Scream.4.2011.1080p.BluRay.x265.10bit.DTS btbt9527.com 7.47GB 悬疑片 恐怖片 犯罪片 欧美电影  第1张

◎译 名 惊声尖叫4 / 夺命狂呼4(港) / 尖叫4 / Scre4m

◎片 名 Scream 4

◎年 代 2011

◎产 地 美国

◎类 别 悬疑 / 恐怖 / 犯罪

◎语 言 英语

◎上映日期 2011-04-15(美国)

◎IMDb链接 https://www.imdb.com/title/tt1262416/

◎豆瓣评分 6.2/10 (15332人评价)

◎豆瓣链接 https://movie.douban.com/subject/3148064/

◎片 长 111分钟

◎导 演 韦斯·克雷文 Wes Craven (id:1025221)

◎编 剧 凯文·威廉姆森 Kevin Williamson (id:1032153)

◎演 员 内芙·坎贝尔 Neve Campbell (id:1027828)

柯特妮·考克斯 Courteney Cox (id:1040995)

大卫·阿奎特 David Arquette (id:1049510)

艾玛·罗伯茨 Emma Roberts (id:1035675)

安娜·帕奎因 Anna Paquin (id:1012515)

克里斯汀·贝尔 Kristen Bell (id:1031240)

海顿·潘妮蒂尔 Hayden Panettiere (id:1025143)

亚当·布罗迪 Adam Brody (id:1003488)

爱丽森·布里 Alison Brie (id:1312967)

玛丽·贾菲 Marielle Jaffe (id:1353075)

Dane Farwell Dane Farwell (id:1283439)

艾米·缇加登 Aimee Teegarden (id:1027202)

南希·奥黛尔 Nancy O'Dell (id:1135803)

埃里克·克诺德森 Erik Knudsen (id:1109212)

安东尼·安德森 Anthony Anderson (id:1022670)

马克·亚伦·布尔克 Mark Aaron Buerkle (id:1364391)

韦斯·克雷文 Wes Craven (id:1025221)

戈登·迈克尔斯 Gordon Michaels (id:1331227)

玛丽·麦克唐纳 Mary McDonnell (id:1044889)

彼得·凯里 Peter Carey (id:1006273)

施蕾·葛莱姆斯 Shenae Grimes (id:1040549)

罗格·杰克逊 Roger Jackson (id:1322445)

布丽特·罗伯森 Britt Robertson (id:1000088)

露西·海尔 Lucy Hale (id:1017884)

尼可·托托雷拉 Nico Tortorella (id:1274983)

玛丽·谢尔顿 Marley Shelton (id:1002691)

罗瑞·卡尔金 Rory Culkin (id:1009278)

韦斯·克雷文 Wes Craven (id:1025221)

亚当·斯托克豪森 Adam Stockhausen (id:1336735)

◎标 签 惊悚 / 美国 / 恐怖 / 悬疑 / 惊声尖叫 / 2011 / 恐怖电影 / 电影

◎简 介

继震惊全国的威兹堡命案发生已经过去10个年头了,当年的幸存者悉妮·普利斯科特(内维·坎贝尔 Neve Campbell 饰)经历了常人无法想象的痛苦与磨难,如今终于从过去的阴影走出。她将那段不堪回首的往事写成书,其经历也被拍成系列电影,一时间红遍全国。在全国签售的最后一站,悉妮来到故乡威兹堡。然而厄运似乎如影随形,前一晚两名妙龄女孩在家中即遭鬼脸杀手杀害,悉妮的车厢内更发现了带血的刀子。警长戴维(David Arquette 饰)对此高度关注,与妻子盖尔(Courteney Cox 饰)各自积极追查真凶。

与此同时,悉妮的表妹吉尔(Emma Roberts 饰)和朋友们也受到陌生人的死亡来电。新一轮的屠杀就此展开,血雨腥风在所难免……

◎获奖情况 (共1项)

第13届美国青少年选择奖 (2011)

最佳恐怖片(提名)

  1. ##### MediaInfo ######

  2. General

  3. Unique ID : 281177757353636553552160574196573211856 (0xD388DDC31AA3AA89F727CFB186170CD0)

  4. Complete name : [email protected]

  5. Format : Matroska

  6. Format version : Version 4

  7. File size : 7.47 GiB

  8. Duration : 1 h 50 min

  9. Overall bit rate : 9 658 kb/s

  10. Movie name : Scream 4

  11. Encoded date : UTC 2021-11-29 03:06:36

  12. Writing application : mkvmerge v63.0.0 ('Everything') 64-bit

  13. Writing library : libebml v1.4.2 + libmatroska v1.6.4

  14. Cover : Yes

  15. Attachments : cover.jpg


  16. Video

  17. ID : 1

  18. Format : HEVC

  19. Format/Info : High Efficiency Video Coding

  20. Format profile : Main [email protected]@Main

  21. Codec ID : V_MPEGH/ISO/HEVC

  22. Duration : 1 h 50 min

  23. Bit rate : 8 060 kb/s

  24. Width : 1 920 pixels

  25. Height : 800 pixels

  26. Display aspect ratio : 2.40:1

  27. Frame rate mode : Constant

  28. Frame rate : 23.976 (24000/1001/53354) FPS

  29. Color space : YUV

  30. Chroma subsampling : 4:2:0

  31. Bit depth : 10 bits

  32. Bits/(Pixel*Frame) : 0.219

  33. Stream size : 6.24 GiB (83%)

  34. Writing library : x265 3.5+2-g2b25c9ba0+45:[Windows][GCC 10.2.0][64 bit] Yuuki 10bit+8bit+12bit

  35. Encoding settings : rc=crf / crf=17.5000 / qcomp=0.65 / qpstep=4 / stats-write=0 / stats-read=0 / no-lossless / no-cu-lossless / aq-mode=3 / aq-strength=0.80 / cbqpoffs=0 / crqpoffs=0 / ipratio=1.40 / pbratio=1.30 / psy-rd=2.00 / psy-rdoq=0.00 / deblock=0:0 / ref=6 / limit-refs=1 / no-limit-modes / bframes=8 / b-adapt=2 / bframe-bias=0 / b-pyramid / b-intra / weightp / weightb / min-keyint=24 / max-keyint=240 / rc-lookahead=24 / gop-lookahead=0 / NTMzNTQ=uuDQuD2mJt9fsCf / scenecut=40 / hist-scenecut=0 / radl=0 / max-cu-size=64 / min-cu-size=8 / me=3 / subme=7 / merange=48 / rdoq-level=0 / rd=4 / rdpenalty=0 / dynamic-rd=0.00 / no-rd-refine / ----- / cutree / sao / no-rect / no-amp / no-open-gop / wpp / no-pmode / pme / no-psnr / no-ssim / nr-intra=0 / nr-inter=0 / no-constrained-intra / no-strong-intra-smoothing / max-tu-size=32 / tu-inter-depth=1 / tu-intra-depth=1 / limit-tu=0 / qg-size=32 / qpmax=69 / qpmin=0 / ----- / cpuid=533541111039 / frame-threads=4 / numa-pools=+ / log-level=2 / input-csp=1 / input-res=1920x800 / interlace=0 / level-idc=0 / high-tier=1 / uhd-bd=0 / no-allow-non-conformance / no-repeat-headers / aud / no-hrd / info / hash=0 / no-temporal-layers / lookahead-slices=0 / no-splice / no-intra-refresh / no-ssim-rd / signhide / no-tskip / max-merge=3 / temporal-mvp / no-frame-dup / no-hme / no-analyze-src-pics / no-sao-non-deblock / selective-sao=4 / early-skip / rskip / no-fast-intra / no-tskip-fast / no-splitrd-skip / zone-count=0 / no-strict-cbr / no-rc-grain / no-const-vbv / sar=0 / overscan=0 / videoformat=5 / range=0 / colorprim=2 / transfer=2 / colormatrix=2 / chromaloc=0 / display-window=0 / cll=0,0 / min-luma=0 / max-luma=1023 / log2-max-poc-lsb=8 / vui-timing-info / vui-hrd-info / slices=1 / no-opt-qp-pps / no-opt-ref-list-length-pps / no-multi-pass-opt-rps / scenecut-bias=0.05 / hist-threshold=0.03 / no-opt-cu-delta-qp / no-aq-motion / no-hdr10 / no-hdr10-opt / no-dhdr10-opt / no-idr-recovery-sei / analysis-reuse-level=0 / analysis-save-reuse-level=0 / analysis-load-reuse-level=0 / scale-factor=0 / refine-intra=0 / refine-inter=0 / refine-mv=1 / refine-ctu-distortion=0 / no-limit-sao / ctu-info=0 / no-lowpass-dct / refine-analysis-type=0 / copy-pic=1 / max-ausize-factor=1.0 / no-dynamic-refine / no-single-sei / no-hevc-aq / no-svt / no-field / qp-adaptation-range=1.00 / scenecut-aware-qp=0conformance-window-offsets / right=0 / bottom=0 / NTMzNTQ= / decoder-max-rate=0 / no-vbv-live-multi-pass

  36. Default : Yes

  37. Forced : No


  38. Audio

  39. ID : 2

  40. ID in the original source medium : 4352 (0x1100)

  41. Format : DTS

  42. Format/Info : Digital Theater Systems

  43. Codec ID : A_DTS

  44. Duration : 1 h 50 min

  45. Bit rate mode : Constant

  46. Bit rate : 1 509 kb/s

  47. Channel(s) : 6 channels

  48. Channel layout : C L R Ls Rs LFE

  49. Sampling rate : 48.0 kHz

  50. Frame rate : 93.750 FPS (512 SPF)

  51. Bit depth : 24 bits

  52. Compression mode : Lossy

  53. Stream size : 1.17 GiB (16%)

  54. Language : English

  55. Default : Yes

  56. Forced : No

  57. Original source medium : Blu-ray


  58. Text #1

  59. ID : 3

  60. ID in the original source medium : 4610 (0x1202)

  61. Format : PGS

  62. Muxing mode : zlib

  63. Codec ID : S_HDMV/PGS

  64. Codec ID/Info : Picture based subtitle format used on BDs/HD-DVDs

  65. Duration : 1 h 43 min

  66. Bit rate : 54.8 kb/s

  67. Count of elements : 2564

  68. Stream size : 40.5 MiB (1%)

  69. Title : chs&eng

  70. Language : Chinese

  71. Default : Yes

  72. Forced : No

  73. Original source medium : Blu-ray


  74. Text #2

  75. ID : 4

  76. ID in the original source medium : 4611 (0x1203)

  77. Format : PGS

  78. Muxing mode : zlib

  79. Codec ID : S_HDMV/PGS

  80. Codec ID/Info : Picture based subtitle format used on BDs/HD-DVDs

  81. Duration : 1 h 43 min

  82. Bit rate : 55.2 kb/s

  83. Count of elements : 2564

  84. Stream size : 40.8 MiB (1%)

  85. Title : cht&eng

  86. Language : Chinese

  87. Default : No

  88. Forced : No

  89. Original source medium : Blu-ray


  90. Text #3

  91. ID : 5

  92. ID in the original source medium : 4612 (0x1204)

  93. Format : PGS

  94. Muxing mode : zlib

  95. Codec ID : S_HDMV/PGS

  96. Codec ID/Info : Picture based subtitle format used on BDs/HD-DVDs

  97. Duration : 1 h 43 min

  98. Bit rate : 30.3 kb/s

  99. Count of elements : 2567

  100. Stream size : 22.4 MiB (0%)

  101. Title : chs

  102. Language : Chinese

  103. Default : No

  104. Forced : No

  105. Original source medium : Blu-ray


  106. Text #4

  107. ID : 6

  108. ID in the original source medium : 4613 (0x1205)

  109. Format : PGS

  110. Muxing mode : zlib

  111. Codec ID : S_HDMV/PGS

  112. Codec ID/Info : Picture based subtitle format used on BDs/HD-DVDs

  113. Duration : 1 h 43 min

  114. Bit rate : 30.7 kb/s

  115. Count of elements : 2567

  116. Stream size : 22.7 MiB (0%)

  117. Title : cht

  118. Language : Chinese

  119. Default : No

  120. Forced : No

  121. Original source medium : Blu-ray


  122. Text #5

  123. ID : 7

  124. ID in the original source medium : 4608 (0x1200)

  125. Format : PGS

  126. Muxing mode : zlib

  127. Codec ID : S_HDMV/PGS

  128. Codec ID/Info : Picture based subtitle format used on BDs/HD-DVDs

  129. Duration : 1 h 43 min

  130. Bit rate : 49.6 kb/s

  131. Count of elements : 3000

  132. Stream size : 36.7 MiB (0%)

  133. Title : eng

  134. Language : English

  135. Default : No

  136. Forced : No

  137. Original source medium : Blu-ray


  138. Menu

  139. 00:00:00.000 : en:Chapter 01

  140. 00:05:31.956 : en:Chapter 02

  141. 00:10:50.316 : en:Chapter 03

  142. 00:16:23.440 : en:Chapter 04

  143. 00:21:25.325 : en:Chapter 05

  144. 00:26:57.324 : en:Chapter 06

  145. 00:31:19.544 : en:Chapter 07

  146. 00:40:02.566 : en:Chapter 08

  147. 00:48:34.494 : en:Chapter 09

  148. 00:54:36.439 : en:Chapter 10

  149. 01:02:04.387 : en:Chapter 11

  150. 01:11:00.214 : en:Chapter 12

  151. 01:17:30.145 : en:Chapter 13

  152. 01:25:47.517 : en:Chapter 14

  153. 01:34:14.607 : en:Chapter 15

  154. 01:43:33.624 : en:Chapter 16


文件下载


除非特别注明,本文『惊声尖叫4[中文字幕].Scream.4.2011.1080p.BluRay.x265.10bit.DTS-btbt9527.com 7.47GB』来源于互联网机器人自动抓取,非本站原创。 浮游电影网不对本文拥有版权,如有侵犯,请联系邮箱:fuyouu#yandex.com[#换成@]投诉。我们会在15个工作日内删除。 但烦请转载时请标明出处:“本文转载于『浮游电影网』,原文地址:https://www.fuyouu.com/19247.html

评论吧骚年!

发表你的见解   

昵称*

E-mail*(建议输入,以便收到博主回复的提示邮件)

验证码*

您可以使用eMule或eMule Mod(Windows)、aMule(Win、Linux、Mac)等软件下载eD2k链接。。
eMule收藏集(.emulecollection)文件是您选中的所有链接的列表文件。eMule可以直接下载它们。
按住SHIFT键选择可以选中多个选择框。
可用文件名和大小选择器来选择文件。
文件名选择器帮您根据文件名称或后缀来选择文件。不分大小写。
符号使用:
和:空格( )、+
不包含:-
或:|
转义:一对英文引号("");
匹配开头:^
匹配结尾:$
例如:
选中所有名称中包含有“eMule”或“0.49c”字眼,但不包含有“exe”字眼的:emule|0.49c -exe
选中所有名称的开头是“eMule”,结尾是“0.49c”的:^emule 0.49c$
选中所有名称中带有“eMule 0.49c”的(必须是“eMule 0.49c”,中间没有别的字符,不能是“eMule fake 0.49c”),需要转义:"emule 0.49c"
大小选择器帮您根据文件大小选择文件。