当前位置: 首页 >> 欧美电影 >> 惊声尖叫3[中文字幕].Scream.3.2000.1080p.BluRay.x265.10bit.DTS-btbt9527.com 8.43GB >> 正文

惊声尖叫3[中文字幕].Scream.3.2000.1080p.BluRay.x265.10bit.DTS-btbt9527.com 8.43GB

2021年12月10日 22:25:00     电影发布:来源于网络     电影分类:欧美电影     评论(0)    

惊声尖叫3[中文字幕].Scream.3.2000.1080p.BluRay.x265.10bit.DTS btbt9527.com 8.43GB 悬疑片 恐怖片 犯罪片 欧美电影  第1张

◎译 名 惊声尖叫3 / 夺命狂呼3(港) / 尖叫3

◎片 名 Scream 3

◎年 代 2000

◎产 地 美国

◎类 别 悬疑 / 恐怖 / 犯罪

◎语 言 英语

◎上映日期 2000-02-04

◎IMDb链接 https://www.imdb.com/title/tt0134084/

◎豆瓣评分 6.3/10 (15856人评价)

◎豆瓣链接 https://movie.douban.com/subject/1293133/

◎片 长 116 分钟

◎导 演 韦斯·克雷文 Wes Craven (id:1025221)

◎编 剧 伊伦·克鲁格 Ehren Kruger (id:1027468)

◎演 员 内芙·坎贝尔 Neve Campbell (id:1027828)

列维·施瑞博尔 Liev Schreiber (id:1027151)

柯特妮·考克斯 Courteney Cox (id:1040995)

大卫·阿奎特 David Arquette (id:1049510)

杰米·肯尼迪 Jamie Kennedy (id:1019042)

艾米莉·莫迪默 Emily Mortimer (id:1036322)

詹尼·麦卡锡 Jenny McCarthy (id:1041106)

凯文·史密斯 Kevin Smith (id:1022587)

乔什·帕斯 Josh Pais (id:1018122)

帕克·波西 Parker Posey (id:1040522)

帕特里克·沃伯顿 Patrick Warburton (id:1041121)

马特·基斯拉 Matt Keeslar (id:1027365)

罗格·杰克逊 Roger Jackson (id:1322445)

凯丽·费雪 Carrie Fisher (id:1027813)

杰森·缪斯 Jason Mewes (id:1017921)

罗杰·科曼 Roger Corman (id:1002780)

斯考特·佛雷 Scott Foley (id:1009323)

南希·奥黛尔 Nancy O'Dell (id:1135803)

Lisa Beach Lisa Beach (id:1278137)

凯莉·拉瑟福德 Kelly Rutherford (id:1040581)

兰斯·亨利克森 Lance Henriksen (id:1048140)

希瑟·玛塔拉佐 Heather Matarazzo (id:1040555)

韦斯·克雷文 Wes Craven (id:1025221)

里奇蒙德·阿奎特 Richmond Arquette (id:1059818)

帕特里克·德姆西 Patrick Dempsey (id:1013769)

鲍伯·韦恩斯坦 Bob Weinstein (id:1300654)

玛丽安·马达莱娜 Marianne Maddalena (id:1290689)

Cathy Konrad Cathy Konrad (id:1288878)

马可·贝尔崔米 Marco Beltrami (id:1027998)

Lisa Beach Lisa Beach (id:1278137)

吉恩·瑟尔迪纳 Gene Serdena (id:1297226)

Kathrine Gordon Kathrine Gordon (id:1285188)

Carol Schwartz Carol Schwartz (id:1297008)

瑞克·艾弗里 Rick Avery (id:1277606)

Maria Mantia Maria Mantia (id:1290920)

罗斯玛丽C·克雷莫纳 Rosemary C. Cremona (id:1281468)

雷·麦金太尔 Ray McIntyre Jr. (id:1291625)

小吉恩·沃伦 Gene Warren Jr. (id:1300455)

乔·威斯科西尔 Joe Viskocil (id:1300123)

◎标 签 惊悚 / 恐怖 / 美国 / 悬疑 / 美国电影 / 2000 / 恐怖电影 / 犯罪

◎简 介

经历了常人难以想象的痛苦与折磨,威兹堡温莎大学杀人案的幸存者悉妮·普利斯科特(内维·坎贝尔 Neve Campbell 饰),如今隐居在山中,通过电话对有着生活危机的女性们进行心理辅导。与此同时,她的事迹被改编成系列恐怖电影“血腥刺杀”(Stab),第3部《Stab》的主角卡顿却被当街杀害。这一事件让悉妮、戴维(David Arquette 饰)以及盖尔(Courteney Cox 饰)重新聚首。而鬼脸杀手更是阴魂不散,在好莱坞引发了新一轮的血腥屠杀……

本片系“惊声尖叫”系列第3部,荣获2000年青年选择奖最具化学作用的组合奖(Courteney Cox & David Arquette)、2001年大热门娱乐奖最佳男主角(David Arquette)和最佳女主角奖(Neve Campbell)。

  1. ##### MediaInfo ######

  2. General

  3. Unique ID : 199488446735049234085763631060174569005 (0x961413CAC2BE0F254AD88DE0BC9CFE2D)

  4. Complete name : [email protected]

  5. Format : Matroska

  6. Format version : Version 4

  7. File size : 8.43 GiB

  8. Duration : 1 h 56 min

  9. Overall bit rate : 10.3 Mb/s

  10. Encoded date : UTC 2021-11-28 13:02:21

  11. Writing application : mkvmerge v63.0.0 ('Everything') 64-bit

  12. Writing library : libebml v1.4.2 + libmatroska v1.6.4

  13. Cover : Yes

  14. Attachments : cover.jpg


  15. Video

  16. ID : 1

  17. Format : HEVC

  18. Format/Info : High Efficiency Video Coding

  19. Format profile : Main [email protected]@Main

  20. Codec ID : V_MPEGH/ISO/HEVC

  21. Duration : 1 h 56 min

  22. Bit rate : 8 722 kb/s

  23. Width : 1 920 pixels

  24. Height : 824 pixels

  25. Display aspect ratio : 2.35:1

  26. Frame rate mode : Constant

  27. Frame rate : 23.976 (24000/1001/53354) FPS

  28. Color space : YUV

  29. Chroma subsampling : 4:2:0

  30. Bit depth : 10 bits

  31. Bits/(Pixel*Frame) : 0.230

  32. Stream size : 7.12 GiB (84%)

  33. Writing library : x265 3.5+2-g2b25c9ba0+45:[Windows][GCC 10.2.0][64 bit] Yuuki 10bit+8bit+12bit

  34. Encoding settings : rc=crf / crf=19.0000 / qcomp=0.60 / qpstep=4 / stats-write=0 / stats-read=0 / no-lossless / no-cu-lossless / aq-mode=3 / aq-strength=0.70 / cbqpoffs=0 / crqpoffs=0 / ipratio=1.40 / pbratio=1.30 / psy-rd=2.00 / psy-rdoq=0.00 / deblock=0:0 / ref=6 / limit-refs=1 / no-limit-modes / bframes=8 / b-adapt=2 / bframe-bias=0 / b-pyramid / b-intra / weightp / weightb / min-keyint=24 / max-keyint=240 / rc-lookahead=24 / gop-lookahead=0 / NTMzNTQ=uuDQuD2mJt9fsCf / scenecut=40 / hist-scenecut=0 / radl=0 / max-cu-size=64 / min-cu-size=8 / me=3 / subme=7 / merange=48 / rdoq-level=0 / rd=4 / rdpenalty=0 / dynamic-rd=0.00 / no-rd-refine / ----- / cutree / sao / no-rect / no-amp / no-open-gop / wpp / no-pmode / pme / no-psnr / no-ssim / nr-intra=0 / nr-inter=0 / no-constrained-intra / no-strong-intra-smoothing / max-tu-size=32 / tu-inter-depth=1 / tu-intra-depth=1 / limit-tu=0 / qg-size=32 / qpmax=69 / qpmin=0 / ----- / cpuid=533541111039 / frame-threads=4 / numa-pools=+ / log-level=2 / input-csp=1 / input-res=1920x824 / interlace=0 / level-idc=0 / high-tier=1 / uhd-bd=0 / no-allow-non-conformance / no-repeat-headers / aud / no-hrd / info / hash=0 / no-temporal-layers / lookahead-slices=0 / no-splice / no-intra-refresh / no-ssim-rd / signhide / no-tskip / max-merge=3 / temporal-mvp / no-frame-dup / no-hme / no-analyze-src-pics / no-sao-non-deblock / selective-sao=4 / early-skip / rskip / no-fast-intra / no-tskip-fast / no-splitrd-skip / zone-count=0 / no-strict-cbr / no-rc-grain / no-const-vbv / sar=0 / overscan=0 / videoformat=5 / range=0 / colorprim=2 / transfer=2 / colormatrix=2 / chromaloc=0 / display-window=0 / cll=0,0 / min-luma=0 / max-luma=1023 / log2-max-poc-lsb=8 / vui-timing-info / vui-hrd-info / slices=1 / no-opt-qp-pps / no-opt-ref-list-length-pps / no-multi-pass-opt-rps / scenecut-bias=0.05 / hist-threshold=0.03 / no-opt-cu-delta-qp / no-aq-motion / no-hdr10 / no-hdr10-opt / no-dhdr10-opt / no-idr-recovery-sei / analysis-reuse-level=0 / analysis-save-reuse-level=0 / analysis-load-reuse-level=0 / scale-factor=0 / refine-intra=0 / refine-inter=0 / refine-mv=1 / refine-ctu-distortion=0 / no-limit-sao / ctu-info=0 / no-lowpass-dct / refine-analysis-type=0 / copy-pic=1 / max-ausize-factor=1.0 / no-dynamic-refine / no-single-sei / no-hevc-aq / no-svt / no-field / qp-adaptation-range=1.00 / scenecut-aware-qp=0conformance-window-offsets / right=0 / bottom=0 / NTMzNTQ= / decoder-max-rate=0 / no-vbv-live-multi-pass

  35. Default : Yes

  36. Forced : No


  37. Audio

  38. ID : 2

  39. ID in the original source medium : 4352 (0x1100)

  40. Format : DTS

  41. Format/Info : Digital Theater Systems

  42. Codec ID : A_DTS

  43. Duration : 1 h 56 min

  44. Bit rate mode : Constant

  45. Bit rate : 1 509 kb/s

  46. Channel(s) : 6 channels

  47. Channel layout : C L R Ls Rs LFE

  48. Sampling rate : 48.0 kHz

  49. Frame rate : 93.750 FPS (512 SPF)

  50. Bit depth : 24 bits

  51. Compression mode : Lossy

  52. Stream size : 1.23 GiB (15%)

  53. Language : English

  54. Default : Yes

  55. Forced : No

  56. Original source medium : Blu-ray


  57. Text #1

  58. ID : 3

  59. ID in the original source medium : 4609 (0x1201)

  60. Format : PGS

  61. Muxing mode : zlib

  62. Codec ID : S_HDMV/PGS

  63. Codec ID/Info : Picture based subtitle format used on BDs/HD-DVDs

  64. Duration : 1 h 56 min

  65. Bit rate : 54.2 kb/s

  66. Count of elements : 3216

  67. Stream size : 45.2 MiB (1%)

  68. Title : chs&eng

  69. Language : Chinese

  70. Default : Yes

  71. Forced : No

  72. Original source medium : Blu-ray


  73. Text #2

  74. ID : 4

  75. ID in the original source medium : 4610 (0x1202)

  76. Format : PGS

  77. Muxing mode : zlib

  78. Codec ID : S_HDMV/PGS

  79. Codec ID/Info : Picture based subtitle format used on BDs/HD-DVDs

  80. Duration : 1 h 56 min

  81. Bit rate : 54.5 kb/s

  82. Count of elements : 3216

  83. Stream size : 45.5 MiB (1%)

  84. Title : cht&eng

  85. Language : Chinese

  86. Default : No

  87. Forced : No

  88. Original source medium : Blu-ray


  89. Text #3

  90. ID : 5

  91. ID in the original source medium : 4611 (0x1203)

  92. Format : PGS

  93. Muxing mode : zlib

  94. Codec ID : S_HDMV/PGS

  95. Codec ID/Info : Picture based subtitle format used on BDs/HD-DVDs

  96. Duration : 1 h 56 min

  97. Bit rate : 29.5 kb/s

  98. Count of elements : 3216

  99. Stream size : 24.6 MiB (0%)

  100. Title : chs

  101. Language : Chinese

  102. Default : No

  103. Forced : No

  104. Original source medium : Blu-ray


  105. Text #4

  106. ID : 6

  107. ID in the original source medium : 4612 (0x1204)

  108. Format : PGS

  109. Muxing mode : zlib

  110. Codec ID : S_HDMV/PGS

  111. Codec ID/Info : Picture based subtitle format used on BDs/HD-DVDs

  112. Duration : 1 h 56 min

  113. Bit rate : 29.8 kb/s

  114. Count of elements : 3216

  115. Stream size : 24.9 MiB (0%)

  116. Title : cht

  117. Language : Chinese

  118. Default : No

  119. Forced : No

  120. Original source medium : Blu-ray


  121. Text #5

  122. ID : 7

  123. ID in the original source medium : 4608 (0x1200)

  124. Format : PGS

  125. Muxing mode : zlib

  126. Codec ID : S_HDMV/PGS

  127. Codec ID/Info : Picture based subtitle format used on BDs/HD-DVDs

  128. Duration : 1 h 56 min

  129. Bit rate : 59.5 kb/s

  130. Count of elements : 3428

  131. Stream size : 49.5 MiB (1%)

  132. Title : eng

  133. Language : English

  134. Default : No

  135. Forced : No

  136. Original source medium : Blu-ray


  137. Menu

  138. 00:00:00.000 : en:Chapter 01

  139. 00:09:40.746 : en:Chapter 02

  140. 00:13:34.480 : en:Chapter 03

  141. 00:19:46.560 : en:Chapter 04

  142. 00:22:48.533 : en:Chapter 05

  143. 00:30:48.179 : en:Chapter 06

  144. 00:36:03.828 : en:Chapter 07

  145. 00:42:00.976 : en:Chapter 08

  146. 00:48:27.195 : en:Chapter 09

  147. 00:56:31.262 : en:Chapter 10

  148. 01:00:11.524 : en:Chapter 11

  149. 01:09:02.096 : en:Chapter 12

  150. 01:12:12.453 : en:Chapter 13

  151. 01:19:03.196 : en:Chapter 14

  152. 01:25:14.776 : en:Chapter 15

  153. 01:31:04.625 : en:Chapter 16

  154. 01:38:58.807 : en:Chapter 17

  155. 01:42:47.119 : en:Chapter 18

  156. 01:47:37.617 : en:Chapter 19

  157. 01:50:32.208 : en:Chapter 20


文件下载


除非特别注明,本文『惊声尖叫3[中文字幕].Scream.3.2000.1080p.BluRay.x265.10bit.DTS-btbt9527.com 8.43GB』来源于互联网机器人自动抓取,非本站原创。 浮游电影网不对本文拥有版权,如有侵犯,请联系邮箱:fuyouu#yandex.com[#换成@]投诉。我们会在15个工作日内删除。 但烦请转载时请标明出处:“本文转载于『浮游电影网』,原文地址:https://www.fuyouu.com/19246.html

评论吧骚年!

发表你的见解   

昵称*

E-mail*(建议输入,以便收到博主回复的提示邮件)

验证码*

您可以使用eMule或eMule Mod(Windows)、aMule(Win、Linux、Mac)等软件下载eD2k链接。。
eMule收藏集(.emulecollection)文件是您选中的所有链接的列表文件。eMule可以直接下载它们。
按住SHIFT键选择可以选中多个选择框。
可用文件名和大小选择器来选择文件。
文件名选择器帮您根据文件名称或后缀来选择文件。不分大小写。
符号使用:
和:空格( )、+
不包含:-
或:|
转义:一对英文引号("");
匹配开头:^
匹配结尾:$
例如:
选中所有名称中包含有“eMule”或“0.49c”字眼,但不包含有“exe”字眼的:emule|0.49c -exe
选中所有名称的开头是“eMule”,结尾是“0.49c”的:^emule 0.49c$
选中所有名称中带有“eMule 0.49c”的(必须是“eMule 0.49c”,中间没有别的字符,不能是“eMule fake 0.49c”),需要转义:"emule 0.49c"
大小选择器帮您根据文件大小选择文件。