当前位置: 首页 >> 日韩电影 >> 一眼瞬间,再见爱[中文字幕].Piecing.Me.Back.Together.2010.1080p.WEB-DL.AAC2.0.H.264-btbt9527.com 3.08GB >> 正文

一眼瞬间,再见爱[中文字幕].Piecing.Me.Back.Together.2010.1080p.WEB-DL.AAC2.0.H.264-btbt9527.com 3.08GB

2021年12月10日 22:21:54     电影发布:来源于网络     电影分类:日韩电影     评论(0)    

一眼瞬间,再见爱[中文字幕].Piecing.Me.Back.Together.2010.1080p.WEB DL.AAC2.0.H.264 btbt9527.com 3.08GB 爱情片 日韩电影  第1张

◎译 名 一眼瞬间,再见爱 / Piecing Me Back Together

◎片 名 瞬 またたき

◎年 代 2010

◎产 地 日本

◎类 别 爱情

◎语 言 日语

◎上映日期 2010-06-19(日本)

◎IMDb链接 https://www.imdb.com/title/tt1611115/

◎豆瓣评分 5.6/10 (2291人评价)

◎豆瓣链接 https://movie.douban.com/subject/4312236/

◎片 长 110分钟

◎导 演 矶村一路 Itsumichi Isomura (id:1108116)

◎编 剧 矶村一路 Itsumichi Isomura (id:1108116)

◎演 员 冈田将生 Masaki Okada (id:1274453)

深水元基 Motoki Fukami (id:1312904)

北川景子 Keiko Kitagawa (id:1023064)

大塚宁宁 Nene ?tsuka (id:1020385)

新川优爱 Yua Shinkawa (id:1322400)

千崎若菜 Wakana Chizaki (id:1335504)

◎标 签 北川景子 / 日本电影 / 日本 / 冈田将生 / 爱情 / 2010 / 日影 / 岡田将生

◎简 介

美丽清纯的女孩园田泉美(北川景子 饰)和父亲、哥哥生活在一起,这个没有母亲的家庭平凡而温馨。在一间花店打工的泉美,因缘际会结识了美术大学的学生河野淳一(冈田将生 饰)。一如许多浪漫小说的情节,他们的爱情油然而生。但是美好仿佛总是遭到命运的忌恨,这对情投意合的小情侣突然遭遇一场严重车祸,泉美身负重伤,淳一则从此和女友阴阳两隔。先进的医疗技术能够医治泉美身体的伤痛,却无法弥合她心中的创口。在此后的日子里,她不断回忆着与淳一在一起的点点滴滴,渴望紧紧握住那早已随风飘落的片片往事……

本片根据河原れん的原作改编。

  1. ##### MediaInfo ######

  2. General

  3. Unique ID : 143058678558337613657559224445624687518 (0x6BA0196AAD1064B201D29FB66CF09B9E)

  4. Complete name : [email protected]VHome.mkv

  5. Format : Matroska

  6. Format version : Version 4

  7. File size : 3.08 GiB

  8. Duration : 1 h 51 min

  9. Overall bit rate : 3 941 kb/s

  10. Encoded date : UTC 2021-12-09 11:08:32

  11. Writing application : mkvmerge v56.1.0 ('My Friend') 64-bit

  12. Writing library : libebml v1.4.2 + libmatroska v1.6.4


  13. Video

  14. ID : 1

  15. Format : AVC

  16. Format/Info : Advanced Video Codec

  17. Format profile : [email protected]

  18. Format settings : CABAC / 1 Ref Frames

  19. Format settings, CABAC : Yes

  20. Format settings, Reference frames : 1 frame

  21. Format settings, GOP : M=1, N=60

  22. Codec ID : V_MPEG4/ISO/AVC

  23. Duration : 1 h 51 min

  24. Bit rate mode : Constant

  25. Bit rate : 4 000 kb/s

  26. Width : 1 920 pixels

  27. Height : 1 080 pixels

  28. Display aspect ratio : 16:9

  29. Frame rate mode : Constant

  30. Frame rate : 29.970 (30000/1001/53354) FPS

  31. Color space : YUV

  32. Chroma subsampling : 4:2:0

  33. Bit depth : 8 bits

  34. Scan type : Progressive

  35. Bits/(Pixel*Frame) : 0.064

  36. Stream size : 2.98 GiB (97%)

  37. Language : English

  38. Default : Yes

  39. Forced : No


  40. Audio

  41. ID : 2

  42. Format : AAC LC

  43. Format/Info : Advanced Audio Codec Low Complexity

  44. Codec ID : A_AAC-2

  45. Duration : 1 h 51 min

  46. Bit rate : 125 kb/s

  47. Channel(s) : 2 channels

  48. Channel layout : L R

  49. Sampling rate : 48.0 kHz

  50. Frame rate : 46.875 FPS (1024 SPF)

  51. Compression mode : Lossy

  52. Stream size : 100 MiB (3%)

  53. Title : Japanese

  54. Language : Japanese

  55. Default : Yes

  56. Forced : No


  57. Text #1

  58. ID : 3

  59. Format : UTF-8

  60. Codec ID : S_TEXT/UTF8

  61. Codec ID/Info : UTF-8 Plain Text

  62. Duration : 1 h 47 min

  63. Bit rate : 29 b/s

  64. Count of elements : 1062

  65. Stream size : 23.1 KiB (0%)

  66. Title : Chinese Simplified

  67. Language : Chinese

  68. Default : Yes

  69. Forced : No


  70. Text #2

  71. ID : 4

  72. Format : UTF-8

  73. Codec ID : S_TEXT/UTF8

  74. Codec ID/Info : UTF-8 Plain Text

  75. Duration : 1 h 47 min

  76. Bit rate : 29 b/s

  77. Count of elements : 1062

  78. Stream size : 23.1 KiB (0%)

  79. Title : Chinese Traditional

  80. Language : Chinese

  81. Default : No

  82. Forced : No




复制代码



文件下载


除非特别注明,本文『一眼瞬间,再见爱[中文字幕].Piecing.Me.Back.Together.2010.1080p.WEB-DL.AAC2.0.H.264-btbt9527.com 3.08GB』来源于互联网机器人自动抓取,非本站原创。 浮游电影网不对本文拥有版权,如有侵犯,请联系邮箱:fuyouu#yandex.com[#换成@]投诉。我们会在15个工作日内删除。 但烦请转载时请标明出处:“本文转载于『浮游电影网』,原文地址:https://www.fuyouu.com/19244.html

评论吧骚年!

发表你的见解   

昵称*

E-mail*(建议输入,以便收到博主回复的提示邮件)

验证码*

您可以使用eMule或eMule Mod(Windows)、aMule(Win、Linux、Mac)等软件下载eD2k链接。。
eMule收藏集(.emulecollection)文件是您选中的所有链接的列表文件。eMule可以直接下载它们。
按住SHIFT键选择可以选中多个选择框。
可用文件名和大小选择器来选择文件。
文件名选择器帮您根据文件名称或后缀来选择文件。不分大小写。
符号使用:
和:空格( )、+
不包含:-
或:|
转义:一对英文引号("");
匹配开头:^
匹配结尾:$
例如:
选中所有名称中包含有“eMule”或“0.49c”字眼,但不包含有“exe”字眼的:emule|0.49c -exe
选中所有名称的开头是“eMule”,结尾是“0.49c”的:^emule 0.49c$
选中所有名称中带有“eMule 0.49c”的(必须是“eMule 0.49c”,中间没有别的字符,不能是“eMule fake 0.49c”),需要转义:"emule 0.49c"
大小选择器帮您根据文件大小选择文件。