当前位置: 首页 >> 欧美电影 >> 普通人[中文字幕].Ordinary.People.1980.AUS.1080p.BluRay.x265.10bit.DD.2.0-btbt9527.com 6.45GB >> 正文

普通人[中文字幕].Ordinary.People.1980.AUS.1080p.BluRay.x265.10bit.DD.2.0-btbt9527.com 6.45GB

2021年12月10日 22:19:10     电影发布:来源于网络     电影分类:欧美电影     评论(0)    

普通人[中文字幕].Ordinary.People.1980.AUS.1080p.BluRay.x265.10bit.DD.2.0 btbt9527.com 6.45GB 剧情片 欧美电影  第1张

、◎译 名 普通人 / 凡夫俗子 / 慈父严母

◎片 名 Ordinary People

◎年 代 1980

◎产 地 美国

◎类 别 剧情

◎语 言 英语

◎上映日期 1980-09-19

◎IMDb链接 https://www.imdb.com/title/tt0081283/

◎豆瓣评分 8.0/10 (4558人评价)

◎豆瓣链接 https://movie.douban.com/subject/1294925/

◎片 长 124 分钟

◎导 演 罗伯特·雷德福 Robert Redford (id:1053617)

◎编 剧 朱迪斯·格斯特 Judith Guest (id:1001592)

阿尔文·萨金特 Alvin Sargent (id:1000667)

南希·多德 Nancy Dowd (id:1282660)

◎演 员 唐纳德·萨瑟兰 Donald Sutherland (id:1010556)

玛丽·泰勒·摩尔 Mary Tyler Moore (id:1013963)

贾德·赫希 Judd Hirsch (id:1055274)

蒂莫西·赫顿 Timothy Hutton (id:1025207)

M·埃梅特·沃尔什 M. Emmet Walsh (id:1054687)

伊丽莎白·麦戈文 Elizabeth McGovern (id:1010588)

黛娜·马诺夫 Dinah Manoff (id:1007056)

弗瑞德里克·林恩 Fredric Lehne (id:1004785)

詹姆斯·希金 James Sikking (id:1142215)

Basil Hoffman Basil Hoffman (id:1092279)

奎因·K·雷德克 Quinn K. Redeker (id:1048354)

Mariclare Costello Mariclare Costello (id:1070216)

Elizabeth Hubbard Elizabeth Hubbard (id:1091725)

亚当·鲍德温 Adam Baldwin (id:1031806)

理查德·怀廷 Richard Whiting (id:1162720)

Cynthia Baker Cynthia Baker (id:1057033)

Rudy Hornish Rudy Hornish (id:1098630)

简·奥德曼 Jane Alderman (id:1276949)

Marilyn Rockafellow Marilyn Rockafellow (id:1141136)

唐·比利特 Don Billett (id:1061199)

Randy De Troit Randy De Troit (id:1205442)

迈克·T·维斯 Michael T. Weiss (id:1004628)

罗纳德·施瓦里 Ronald L. Schwary (id:1297049)

Penny Perry Penny Perry (id:1294339)

Gary Liddiard Gary Liddiard (id:1290022)

Steve Perry Steve Perry (id:1294334)

迈克尔·布里顿 Michael Britton (id:1279335)

◎标 签 美国 / 家庭 / 心理 / 成长 / 奥斯卡最佳影片 / 奥斯卡 / 美国电影 / 罗伯特·雷德福

◎简 介

和大部分家庭一样,杰瑞特一家人过着稳定而又平静的生活,卡尔文(唐纳德·萨瑟兰 Donald Sutherland)不仅是一个工作上矜矜业业的正直律师,同时也将父亲和丈夫的角色扮演得十分出色,和妻子贝丝(玛丽·泰勒·摩尔 Mary Tyler Moore 饰)结婚二十余载,两人的感情分外稳定。

身为杰瑞特家的大儿子,伯克(Scott Doebler 饰)享受着更多的关心与爱,身为小儿子的康纳德(蒂莫西·赫顿 Timothy Hutton 饰)对此却并不在意。一次意外中,伯克溺水身亡,悲痛欲绝的贝丝迁怒于当时和伯克在一起的康纳德,这让后者十分痛苦与自责,好在有卡尔文的陪伴和关心,他内心的创伤才渐渐治愈。然而,当他再次鼓起勇气向母亲索取温暖的时候,贝丝的举动却让他的心再一次坠入了冰窖。

◎获奖情况 (共6项)

第53届奥斯卡金像奖 (1981)

最佳影片

└──罗纳德·施瓦里 (id:1297049)

最佳导演

└──罗伯特·雷德福 (id:1053617)

最佳女主角(提名)

└──玛丽·泰勒·摩尔 (id:1013963)

最佳男配角

└──蒂莫西·赫顿 (id:1025207)

最佳男配角(提名)

└──贾德·赫希 (id:1055274)

最佳改编剧本

└──阿尔文·萨金特 (id:1000667)

  1. ##### MediaInfo ######

  2. General

  3. Unique ID : 55568380431227644878608906304406472328 (0x29CE14AE37E28F36B0B8F692461CC688)

  4. Complete name : [email protected]VHome.mkv

  5. Format : Matroska

  6. Format version : Version 4

  7. File size : 6.45 GiB

  8. Duration : 2 h 4 min

  9. Overall bit rate : 7 424 kb/s

  10. Encoded date : UTC 2021-12-01 05:38:56

  11. Writing application : mkvmerge v56.1.0 ('My Friend') 64-bit

  12. Writing library : libebml v1.4.2 + libmatroska v1.6.4


  13. Video

  14. ID : 1

  15. Format : HEVC

  16. Format/Info : High Efficiency Video Coding

  17. Format profile : Main [email protected]@Main

  18. Codec ID : V_MPEGH/ISO/HEVC

  19. Duration : 2 h 4 min

  20. Bit rate : 6 902 kb/s

  21. Width : 1 920 pixels

  22. Height : 1 040 pixels

  23. Display aspect ratio : 1.85:1

  24. Frame rate mode : Constant

  25. Frame rate : 23.976 (24000/1001/53354) FPS

  26. Color space : YUV

  27. Chroma subsampling : 4:2:0

  28. Bit depth : 10 bits

  29. Bits/(Pixel*Frame) : 0.144

  30. Stream size : 6.00 GiB (93%)

  31. Writing library : x265 3.5+2-g2b25c9ba0+45:[Windows][GCC 10.2.0][64 bit] Yuuki 10bit+8bit+12bit

  32. Encoding settings : rc=crf / crf=17.0000 / qcomp=0.60 / qpstep=4 / stats-write=0 / stats-read=0 / no-lossless / no-cu-lossless / aq-mode=3 / aq-strength=0.90 / cbqpoffs=0 / crqpoffs=0 / ipratio=1.40 / pbratio=1.30 / psy-rd=2.00 / psy-rdoq=0.00 / deblock=0:0 / ref=6 / limit-refs=1 / no-limit-modes / bframes=9 / b-adapt=2 / bframe-bias=0 / b-pyramid / b-intra / weightp / weightb / min-keyint=24 / max-keyint=240 / rc-lookahead=24 / gop-lookahead=0 / NTMzNTQ=uuDQuD2mJt9fsCf / scenecut=40 / hist-scenecut=0 / radl=0 / max-cu-size=64 / min-cu-size=8 / me=3 / subme=7 / merange=48 / rdoq-level=0 / rd=4 / rdpenalty=0 / dynamic-rd=0.00 / no-rd-refine / ----- / cutree / sao / no-rect / no-amp / no-open-gop / wpp / no-pmode / no-pme / no-psnr / no-ssim / nr-intra=0 / nr-inter=0 / no-constrained-intra / no-strong-intra-smoothing / max-tu-size=32 / tu-inter-depth=1 / tu-intra-depth=1 / limit-tu=0 / qg-size=32 / qpmax=69 / qpmin=0 / ----- / cpuid=533541111039 / frame-threads=4 / numa-pools=+ / log-level=2 / input-csp=1 / input-res=1920x1040 / interlace=0 / level-idc=0 / high-tier=1 / uhd-bd=0 / no-allow-non-conformance / no-repeat-headers / aud / no-hrd / info / hash=0 / no-temporal-layers / lookahead-slices=0 / no-splice / no-intra-refresh / no-ssim-rd / signhide / no-tskip / max-merge=3 / temporal-mvp / no-frame-dup / no-hme / no-analyze-src-pics / no-sao-non-deblock / selective-sao=4 / early-skip / rskip / no-fast-intra / no-tskip-fast / no-splitrd-skip / zone-count=0 / no-strict-cbr / no-rc-grain / no-const-vbv / sar=0 / overscan=0 / videoformat=5 / range=0 / colorprim=2 / transfer=2 / colormatrix=2 / chromaloc=0 / display-window=0 / cll=0,0 / min-luma=0 / max-luma=1023 / log2-max-poc-lsb=8 / vui-timing-info / vui-hrd-info / slices=1 / no-opt-qp-pps / no-opt-ref-list-length-pps / no-multi-pass-opt-rps / scenecut-bias=0.05 / hist-threshold=0.03 / no-opt-cu-delta-qp / no-aq-motion / no-hdr10 / no-hdr10-opt / no-dhdr10-opt / no-idr-recovery-sei / analysis-reuse-level=0 / analysis-save-reuse-level=0 / analysis-load-reuse-level=0 / scale-factor=0 / refine-intra=0 / refine-inter=0 / refine-mv=1 / refine-ctu-distortion=0 / no-limit-sao / ctu-info=0 / no-lowpass-dct / refine-analysis-type=0 / copy-pic=1 / max-ausize-factor=1.0 / no-dynamic-refine / no-single-sei / no-hevc-aq / no-svt / no-field / qp-adaptation-range=1.00 / scenecut-aware-qp=0conformance-window-offsets / right=0 / bottom=0 / NTMzNTQ= / decoder-max-rate=0 / no-vbv-live-multi-pass

  33. Default : Yes

  34. Forced : No


  35. Audio

  36. ID : 2

  37. ID in the original source medium : 4352 (0x1100)

  38. Format : AC-3

  39. Format/Info : Audio Coding 3

  40. Commercial name : Dolby Digital

  41. Codec ID : A_AC3

  42. Duration : 2 h 4 min

  43. Bit rate mode : Constant

  44. Bit rate : 448 kb/s

  45. Channel(s) : 2 channels

  46. Channel layout : L R

  47. Sampling rate : 48.0 kHz

  48. Frame rate : 31.250 FPS (1536 SPF)

  49. Compression mode : Lossy

  50. Stream size : 398 MiB (6%)

  51. Language : English

  52. Service kind : Complete Main

  53. Default : Yes

  54. Forced : No

  55. Original source medium : Blu-ray


  56. Text #1

  57. ID : 3

  58. Format : PGS

  59. Muxing mode : zlib

  60. Codec ID : S_HDMV/PGS

  61. Codec ID/Info : Picture based subtitle format used on BDs/HD-DVDs

  62. Duration : 1 h 59 min

  63. Bit rate : 44.0 kb/s

  64. Count of elements : 3486

  65. Stream size : 37.4 MiB (1%)

  66. Title : chs&eng

  67. Language : Chinese

  68. Default : Yes

  69. Forced : No


  70. Text #2

  71. ID : 4

  72. Format : PGS

  73. Muxing mode : zlib

  74. Codec ID : S_HDMV/PGS

  75. Codec ID/Info : Picture based subtitle format used on BDs/HD-DVDs

  76. Duration : 1 h 59 min

  77. Bit rate : 44.3 kb/s

  78. Count of elements : 3486

  79. Stream size : 37.7 MiB (1%)

  80. Title : cht&eng

  81. Language : Chinese

  82. Default : No

  83. Forced : No


  84. Text #3

  85. ID : 5

  86. Format : PGS

  87. Muxing mode : zlib

  88. Codec ID : S_HDMV/PGS

  89. Codec ID/Info : Picture based subtitle format used on BDs/HD-DVDs

  90. Duration : 1 h 59 min

  91. Bit rate : 25.1 kb/s

  92. Count of elements : 3486

  93. Stream size : 21.4 MiB (0%)

  94. Title : chs

  95. Language : Chinese

  96. Default : No

  97. Forced : No


  98. Text #4

  99. ID : 6

  100. Format : PGS

  101. Muxing mode : zlib

  102. Codec ID : S_HDMV/PGS

  103. Codec ID/Info : Picture based subtitle format used on BDs/HD-DVDs

  104. Duration : 1 h 59 min

  105. Bit rate : 25.4 kb/s

  106. Count of elements : 3486

  107. Stream size : 21.6 MiB (0%)

  108. Title : cht

  109. Language : Chinese

  110. Default : No

  111. Forced : No


  112. Text #5

  113. ID : 7

  114. Format : PGS

  115. Muxing mode : zlib

  116. Codec ID : S_HDMV/PGS

  117. Codec ID/Info : Picture based subtitle format used on BDs/HD-DVDs

  118. Duration : 1 h 58 min

  119. Bit rate : 19.4 kb/s

  120. Count of elements : 3481

  121. Stream size : 16.5 MiB (0%)

  122. Title : eng

  123. Language : English

  124. Default : No

  125. Forced : No


  126. Menu

  127. 00:00:00.000 : 第 01 章




复制代码



文件下载


除非特别注明,本文『普通人[中文字幕].Ordinary.People.1980.AUS.1080p.BluRay.x265.10bit.DD.2.0-btbt9527.com 6.45GB』来源于互联网机器人自动抓取,非本站原创。 浮游电影网不对本文拥有版权,如有侵犯,请联系邮箱:fuyouu#yandex.com[#换成@]投诉。我们会在15个工作日内删除。 但烦请转载时请标明出处:“本文转载于『浮游电影网』,原文地址:https://www.fuyouu.com/19243.html

评论吧骚年!

发表你的见解   

昵称*

E-mail*(建议输入,以便收到博主回复的提示邮件)

验证码*

您可以使用eMule或eMule Mod(Windows)、aMule(Win、Linux、Mac)等软件下载eD2k链接。。
eMule收藏集(.emulecollection)文件是您选中的所有链接的列表文件。eMule可以直接下载它们。
按住SHIFT键选择可以选中多个选择框。
可用文件名和大小选择器来选择文件。
文件名选择器帮您根据文件名称或后缀来选择文件。不分大小写。
符号使用:
和:空格( )、+
不包含:-
或:|
转义:一对英文引号("");
匹配开头:^
匹配结尾:$
例如:
选中所有名称中包含有“eMule”或“0.49c”字眼,但不包含有“exe”字眼的:emule|0.49c -exe
选中所有名称的开头是“eMule”,结尾是“0.49c”的:^emule 0.49c$
选中所有名称中带有“eMule 0.49c”的(必须是“eMule 0.49c”,中间没有别的字符,不能是“eMule fake 0.49c”),需要转义:"emule 0.49c"
大小选择器帮您根据文件大小选择文件。