当前位置: 首页 >> 港台电影 >> 一念无明[国粤语配音/中文字幕].Mad.World.2017.1080p.BluRay.x265.10bit.DTS.2Audio-btbt9527.com 5.42GB >> 正文

一念无明[国粤语配音/中文字幕].Mad.World.2017.1080p.BluRay.x265.10bit.DTS.2Audio-btbt9527.com 5.42GB

2021年12月10日 22:15:42     电影发布:来源于网络     电影分类:港台电影     评论(0)    

一念无明[国粤语配音/中文字幕].Mad.World.2017.1080p.BluRay.x265.10bit.DTS.2Audio btbt9527.com 5.42GB 家庭片 剧情片 港台电影  第1张

◎译 名 一念无明 / Mad World

◎片 名 一念無明

◎年 代 2016

◎产 地 中国香港

◎类 别 剧情 / 家庭

◎语 言 粤语

◎上映日期 2017-04-07(中国大陆) / 2017-03-30(中国香港) / 2016-09-08(多伦多电影节)

◎IMDb链接 https://www.imdb.com/title/tt6041030/

◎豆瓣评分 7.9/10 (99343人评价)

◎豆瓣链接 https://movie.douban.com/subject/26704590/

◎片 长 101分钟

◎导 演 黄进 Chun Wong (id:1324490)

◎编 剧 黄进 Chun Wong (id:1324490)

陈楚珩 Florence Chan (id:1336136)

◎演 员 曾志伟 Eric Tsang (id:1002862)

余文乐 Shawn Yue (id:1041510)

方皓玟 Charmaine Fong (id:1319116)

金燕玲 Elaine Jin (id:1280673)

陈学文 Ivan Chan (id:1371534)

麦子乐 Bryant Ji-Lok Mak (id:1351652)

吴肇轩 Kenneth Woo (id:1353200)

税瀞熙 Jingxi Shui (id:1344413)

陈彼得 Peter Chan (id:1411247)

朱跃希 Charis Chu (id:1388487)

陈凤珍 Fengzhen Chen (id:1405456)

曾洁卿 Kit Hing Tsang (id:1405457)

麦曦茵 Heiward Mak (id:1274609)

赵崇基 Sung Kee Chiu (id:1280689)

波多野裕介 Yusuke Hatano (id:1362901)

张玉泉 Yuk-Chuen Cheung (id:1405463)

张颖 Ying Zhang (id:1425471)

黄进 Chun Wong (id:1324490)

张兆康 Ahong Cheung (id:1366935)

张伟全 Wai Chuen Cheung (id:1405460)

陈韦忠 Wai Chung Chan (id:1405461)

罗嘉慧 Ka Wai Lo (id:1405462)

叶兆聪 Sam Ip (id:1405458)

陈智丰 Bone Chan (id:1405465)

叶俊豪 Ricky Yip (id:1405464)

◎标 签 香港 / 心理 / 社会 / 人性 / 家庭 / 现实 / 亲情 / 剧情

◎简 介

患有躁郁症的阿东(余文乐 饰)因为当年误杀饱受痛症折磨的妈妈(金燕玲 饰)被判入住青山医院,康复出院后住在当陆港司机的爸爸黄大海(曾志伟 饰)的板间房里。黄大海试图关心儿子,但阿东却并不领情,原来阿东一直对爸爸当年抛弃家庭的事耿耿于怀。阿东重投社会,却遭到身边的朋友歧视,唯然他尝试平复自己,同时阿东也想尽方法希望找回当天谈到近乎订婚的Jenny(方皓玟 饰),没想到当找到Jenny时,却有着另一番滋味。

◎获奖情况 (共20项)

第53届台北金马影展 (2016)

金马奖 最佳男配角(提名)

└──曾志伟 (id:1002862)

金马奖 最佳女配角

└──金燕玲 (id:1280673)

金马奖 最佳新导演

└──黄进 (id:1324490)

第36届香港电影金像奖 (2017)

最佳导演(提名)

└──黄进 (id:1324490)

最佳编剧(提名)

└──陈楚珩 (id:1336136)

最佳男主角(提名)

└──余文乐 (id:1041510)

最佳男配角

└──曾志伟 (id:1002862)

最佳女配角

└──金燕玲 (id:1280673)

最佳女配角(提名)

└──方皓玟 (id:1319116)

最佳原创电影音乐(提名)

└──波多野裕介 (id:1362901)

新晋导演

└──黄进 (id:1324490)

第11届亚洲电影大奖 (2017)

最佳女配角(提名)

└──金燕玲 (id:1280673)

第41届香港国际电影节 (2017)

国际短片竞赛 特别表扬(本地)

└──黄进 (id:1324490)

第17届华语电影传媒大奖 (2017)

最佳男主角(提名)

└──余文乐 (id:1041510)

最佳男配角(提名)

└──曾志伟 (id:1002862)

最佳女配角(提名)

最佳新导演(提名)

└──黄进 (id:1324490)

最佳编剧(提名)

└──陈楚珩 (id:1336136)

第4届豆瓣电影年度榜单 (2017)

评分最高的华语电影(提名)

4月最受关注电影(提名)

  1. ##### MediaInfo ######

  2. General

  3. Unique ID : 108878655106729556648216335895292427293 (0x51E94426D3EE63B3E249302640B23C1D)

  4. Complete name : [email protected]mkv

  5. Format : Matroska

  6. Format version : Version 4

  7. File size : 5.42 GiB

  8. Duration : 1 h 41 min

  9. Overall bit rate : 7 619 kb/s

  10. Movie name : Mad World - Blu-ray?

  11. Encoded date : UTC 2021-12-02 12:25:37

  12. Writing application : mkvmerge v63.0.0 ('Everything') 64-bit

  13. Writing library : libebml v1.4.2 + libmatroska v1.6.4

  14. Cover : Yes

  15. Attachments : cover.jpg


  16. Video

  17. ID : 1

  18. Format : HEVC

  19. Format/Info : High Efficiency Video Coding

  20. Format profile : Main [email protected]@Main

  21. Codec ID : V_MPEGH/ISO/HEVC

  22. Duration : 1 h 41 min

  23. Bit rate : 4 571 kb/s

  24. Width : 1 920 pixels

  25. Height : 804 pixels

  26. Display aspect ratio : 2.40:1

  27. Frame rate mode : Constant

  28. Frame rate : 24.000 FPS

  29. Color space : YUV

  30. Chroma subsampling : 4:2:0

  31. Bit depth : 10 bits

  32. Bits/(Pixel*Frame) : 0.123

  33. Stream size : 3.25 GiB (60%)

  34. Writing library : x265 3.5+2-g2b25c9ba0+45:[Windows][GCC 10.2.0][64 bit] Yuuki 10bit+8bit+12bit

  35. Encoding settings : rc=crf / crf=17.0000 / qcomp=0.65 / qpstep=4 / stats-write=0 / stats-read=0 / no-lossless / no-cu-lossless / aq-mode=3 / aq-strength=0.80 / cbqpoffs=0 / crqpoffs=0 / ipratio=1.40 / pbratio=1.30 / psy-rd=2.00 / psy-rdoq=0.00 / deblock=0:0 / ref=6 / limit-refs=1 / no-limit-modes / bframes=8 / b-adapt=2 / bframe-bias=0 / b-pyramid / b-intra / weightp / weightb / min-keyint=24 / max-keyint=240 / rc-lookahead=24 / gop-lookahead=0 / NTMzNTQ=uuDQuD2mJt9fsCf / scenecut=40 / hist-scenecut=0 / radl=0 / max-cu-size=64 / min-cu-size=8 / me=3 / subme=7 / merange=48 / rdoq-level=0 / rd=4 / rdpenalty=0 / dynamic-rd=0.00 / no-rd-refine / ----- / cutree / sao / no-rect / no-amp / no-open-gop / wpp / no-pmode / pme / no-psnr / no-ssim / nr-intra=0 / nr-inter=0 / no-constrained-intra / no-strong-intra-smoothing / max-tu-size=32 / tu-inter-depth=1 / tu-intra-depth=1 / limit-tu=0 / qg-size=32 / qpmax=69 / qpmin=0 / ----- / cpuid=533541111039 / frame-threads=4 / numa-pools=+ / log-level=2 / input-csp=1 / input-res=1920x804 / interlace=0 / level-idc=0 / high-tier=1 / uhd-bd=0 / no-allow-non-conformance / no-repeat-headers / aud / no-hrd / info / hash=0 / no-temporal-layers / lookahead-slices=0 / no-splice / no-intra-refresh / no-ssim-rd / signhide / no-tskip / max-merge=3 / temporal-mvp / no-frame-dup / no-hme / no-analyze-src-pics / no-sao-non-deblock / selective-sao=4 / early-skip / rskip / no-fast-intra / no-tskip-fast / no-splitrd-skip / zone-count=0 / no-strict-cbr / no-rc-grain / no-const-vbv / sar=0 / overscan=0 / videoformat=5 / range=0 / colorprim=2 / transfer=2 / colormatrix=2 / chromaloc=0 / display-window=0 / cll=0,0 / min-luma=0 / max-luma=1023 / log2-max-poc-lsb=8 / vui-timing-info / vui-hrd-info / slices=1 / no-opt-qp-pps / no-opt-ref-list-length-pps / no-multi-pass-opt-rps / scenecut-bias=0.05 / hist-threshold=0.03 / no-opt-cu-delta-qp / no-aq-motion / no-hdr10 / no-hdr10-opt / no-dhdr10-opt / no-idr-recovery-sei / analysis-reuse-level=0 / analysis-save-reuse-level=0 / analysis-load-reuse-level=0 / scale-factor=0 / refine-intra=0 / refine-inter=0 / refine-mv=1 / refine-ctu-distortion=0 / no-limit-sao / ctu-info=0 / no-lowpass-dct / refine-analysis-type=0 / copy-pic=1 / max-ausize-factor=1.0 / no-dynamic-refine / no-single-sei / no-hevc-aq / no-svt / no-field / qp-adaptation-range=1.00 / scenecut-aware-qp=0conformance-window-offsets / right=0 / bottom=0 / NTMzNTQ= / decoder-max-rate=0 / no-vbv-live-multi-pass

  36. Default : Yes

  37. Forced : No


  38. Audio #1

  39. ID : 2

  40. Format : DTS

  41. Format/Info : Digital Theater Systems

  42. Codec ID : A_DTS

  43. Duration : 1 h 41 min

  44. Bit rate mode : Constant

  45. Bit rate : 1 510 kb/s

  46. Channel(s) : 6 channels

  47. Channel layout : C L R Ls Rs LFE

  48. Sampling rate : 48.0 kHz

  49. Frame rate : 93.750 FPS (512 SPF)

  50. Bit depth : 24 bits

  51. Compression mode : Lossy

  52. Stream size : 1.07 GiB (20%)

  53. Title : Mandarin

  54. Language : Chinese

  55. Default : Yes

  56. Forced : No


  57. Audio #2

  58. ID : 3

  59. Format : DTS

  60. Format/Info : Digital Theater Systems

  61. Codec ID : A_DTS

  62. Duration : 1 h 41 min

  63. Bit rate mode : Constant

  64. Bit rate : 1 510 kb/s

  65. Channel(s) : 6 channels

  66. Channel layout : C L R Ls Rs LFE

  67. Sampling rate : 48.0 kHz

  68. Frame rate : 93.750 FPS (512 SPF)

  69. Bit depth : 24 bits

  70. Compression mode : Lossy

  71. Stream size : 1.07 GiB (20%)

  72. Title : Cantonese

  73. Language : Chinese

  74. Default : No

  75. Forced : No


  76. Text #1

  77. ID : 4

  78. Format : PGS

  79. Muxing mode : zlib

  80. Codec ID : S_HDMV/PGS

  81. Codec ID/Info : Picture based subtitle format used on BDs/HD-DVDs

  82. Duration : 1 h 38 min

  83. Bit rate : 18.5 kb/s

  84. Count of elements : 1649

  85. Stream size : 13.1 MiB (0%)

  86. Title : chs

  87. Language : Chinese

  88. Default : Yes

  89. Forced : No


  90. Text #2

  91. ID : 5

  92. Format : PGS

  93. Muxing mode : zlib

  94. Codec ID : S_HDMV/PGS

  95. Codec ID/Info : Picture based subtitle format used on BDs/HD-DVDs

  96. Duration : 1 h 38 min

  97. Bit rate : 18.7 kb/s

  98. Count of elements : 1649

  99. Stream size : 13.2 MiB (0%)

  100. Title : cht

  101. Language : Chinese

  102. Default : No

  103. Forced : No


  104. Text #3

  105. ID : 6

  106. ID in the original source medium : 4609 (0x1201)

  107. Format : PGS

  108. Muxing mode : zlib

  109. Codec ID : S_HDMV/PGS

  110. Codec ID/Info : Picture based subtitle format used on BDs/HD-DVDs

  111. Duration : 1 h 37 min

  112. Bit rate : 24.0 kb/s

  113. Count of elements : 1665

  114. Stream size : 16.7 MiB (0%)

  115. Title : eng

  116. Language : English

  117. Default : No

  118. Forced : No

  119. Original source medium : Blu-ray


  120. Menu

  121. 00:00:00.000 : en:Chapter 01

  122. 00:04:37.500 : en:Chapter 02

  123. 00:11:07.916 : en:Chapter 03

  124. 00:15:19.833 : en:Chapter 04

  125. 00:21:02.833 : en:Chapter 05

  126. 00:28:01.833 : en:Chapter 06

  127. 00:32:26.208 : en:Chapter 07

  128. 00:39:50.958 : en:Chapter 08

  129. 00:48:07.875 : en:Chapter 09

  130. 00:53:45.125 : en:Chapter 10

  131. 00:59:33.958 : en:Chapter 11

  132. 01:03:12.125 : en:Chapter 12

  133. 01:06:24.375 : en:Chapter 13

  134. 01:11:39.416 : en:Chapter 14

  135. 01:17:52.125 : en:Chapter 15

  136. 01:21:29.791 : en:Chapter 16

  137. 01:27:35.500 : en:Chapter 17

  138. 01:31:41.666 : en:Chapter 18

  139. 01:34:51.625 : en:Chapter 19

  140. 01:38:51.541 : en:Chapter 20


文件下载


除非特别注明,本文『一念无明[国粤语配音/中文字幕].Mad.World.2017.1080p.BluRay.x265.10bit.DTS.2Audio-btbt9527.com 5.42GB』来源于互联网机器人自动抓取,非本站原创。 浮游电影网不对本文拥有版权,如有侵犯,请联系邮箱:fuyouu#yandex.com[#换成@]投诉。我们会在15个工作日内删除。 但烦请转载时请标明出处:“本文转载于『浮游电影网』,原文地址:https://www.fuyouu.com/19241.html

评论吧骚年!

发表你的见解   

昵称*

E-mail*(建议输入,以便收到博主回复的提示邮件)

验证码*

您可以使用eMule或eMule Mod(Windows)、aMule(Win、Linux、Mac)等软件下载eD2k链接。。
eMule收藏集(.emulecollection)文件是您选中的所有链接的列表文件。eMule可以直接下载它们。
按住SHIFT键选择可以选中多个选择框。
可用文件名和大小选择器来选择文件。
文件名选择器帮您根据文件名称或后缀来选择文件。不分大小写。
符号使用:
和:空格( )、+
不包含:-
或:|
转义:一对英文引号("");
匹配开头:^
匹配结尾:$
例如:
选中所有名称中包含有“eMule”或“0.49c”字眼,但不包含有“exe”字眼的:emule|0.49c -exe
选中所有名称的开头是“eMule”,结尾是“0.49c”的:^emule 0.49c$
选中所有名称中带有“eMule 0.49c”的(必须是“eMule 0.49c”,中间没有别的字符,不能是“eMule fake 0.49c”),需要转义:"emule 0.49c"
大小选择器帮您根据文件大小选择文件。