当前位置: 首页 >> 欧美电影 >> 屏住呼吸2[中文字幕].Don't.Breathe.2.2021.1080p.BluRay.x265.10bit.DTS-btbt9527.com 4.41GB >> 正文

屏住呼吸2[中文字幕].Don't.Breathe.2.2021.1080p.BluRay.x265.10bit.DTS-btbt9527.com 4.41GB

2021年12月10日 22:11:17     电影发布:来源于网络     电影分类:欧美电影     评论(0)    

屏住呼吸2[中文字幕].Dont.Breathe.2.2021.1080p.BluRay.x265.10bit.DTS btbt9527.com 4.41GB 恐怖片 惊悚片 欧美电影  第1张

◎译 名 屏住呼吸2 / 禁室杀戮2(港) / 暂时停止呼吸2(台) / 别呼吸2

◎片 名 Don't Breathe 2

◎年 代 2021

◎产 地 美国 / 塞尔维亚

◎类 别 惊悚 / 恐怖

◎语 言 英语

◎上映日期 2021-08-13(美国)

◎IMDb链接 https://www.imdb.com/title/tt6246322/

◎豆瓣评分 6.5/10 (20179人评价)

◎豆瓣链接 https://movie.douban.com/subject/26915921/

◎片 长 98分钟

◎导 演 罗多·赛亚格斯 Rodo Sayagues (id:1331371)

◎编 剧 费德·阿尔瓦雷兹 Fede Alvarez (id:1208843)

罗多·赛亚格斯 Rodo Sayagues (id:1331371)

◎演 员 史蒂芬·朗 Stephen Lang (id:1010537)

布兰登·萨克斯顿 Brendan Sexton III (id:1140622)

马德琳·格雷斯 Madelyn Grace (id:1460804)

罗奇·威廉姆斯 Rocci Williams (id:1456269)

斯蒂芬妮·阿西拉 Stephanie Arcila (id:1456532)

鲍比·斯科菲尔德 Bobby Schofield (id:1388859)

戴安娜·巴尼科娃 Diaana Babnicova (id:1460805)

亚当·扬 Adam Young (id:1408227)

克里斯蒂安·泽吉亚 Christian Zagia (id:1361670)

罗恩·罗格尔 Ron Rogell (id:1216595)

菲奥娜·奥肖内西 Fiona O'Shaughnessy (id:1327667)

费德·阿尔瓦雷兹 Fede Alvarez (id:1208843)

佩德罗·卢克 Pedro Luque (id:1043206)

◎标 签 惊悚 / 犯罪 / 美国 / 悬疑 / 2021 / 恐怖 / 美国电影 / 电影

◎简 介

《屏住呼吸1》编剧罗多·赛亚格斯执导,并同前作导演费德·阿尔瓦雷兹一起写剧本,史蒂芬·朗、罗奇·威廉姆斯、斯蒂芬妮·阿西拉、鲍比·斯科菲尔德、亚当·扬等主演。

故事发生在最初致命的入室抢劫之后的几年,眼盲的退伍老兵诺曼过着平静的生活,直到过去的罪恶开始找上他。

  1. ##### MediaInfo ######

  2. General

  3. Unique ID : 265586967394449279077019651667953399042 (0xC7CE307838118B0A2FD4AE95AA0F3502)

  4. Complete name : Don'[email protected]

  5. Format : Matroska

  6. Format version : Version 4

  7. File size : 4.41 GiB

  8. Duration : 1 h 38 min

  9. Overall bit rate : 6 429 kb/s

  10. Encoded date : UTC 2021-11-30 07:17:05

  11. Writing application : mkvmerge v49.0.0 ('Sick Of Losing Soulmates') 64-bit

  12. Writing library : libebml v1.4.0 + libmatroska v1.6.1


  13. Video

  14. ID : 5

  15. Format : HEVC

  16. Format/Info : High Efficiency Video Coding

  17. Format profile : Main [email protected]@Main

  18. Codec ID : V_MPEGH/ISO/HEVC

  19. Duration : 1 h 38 min

  20. Bit rate : 4 900 kb/s

  21. Width : 1 920 pixels

  22. Height : 802 pixels

  23. Display aspect ratio : 2.40:1

  24. Frame rate mode : Constant

  25. Frame rate : 23.976 (24000/1001/53354) FPS

  26. Color space : YUV

  27. Chroma subsampling : 4:2:0

  28. Bit depth : 10 bits

  29. Bits/(Pixel*Frame) : 0.133

  30. Stream size : 3.36 GiB (76%)

  31. Writing library : x265 3.5+2-g2b25c9ba0+45:[Windows][GCC 10.2.0][64 bit] Yuuki 10bit+8bit+12bit

  32. Encoding settings : rc=crf / crf=16.5000 / qcomp=0.60 / qpstep=4 / stats-write=0 / stats-read=0 / no-lossless / no-cu-lossless / aq-mode=3 / aq-strength=0.90 / cbqpoffs=0 / crqpoffs=0 / ipratio=1.40 / pbratio=1.30 / psy-rd=2.00 / psy-rdoq=0.00 / deblock=0:0 / ref=6 / limit-refs=1 / no-limit-modes / bframes=11 / b-adapt=2 / bframe-bias=0 / b-pyramid / b-intra / weightp / weightb / min-keyint=24 / max-keyint=240 / rc-lookahead=24 / gop-lookahead=0 / NTMzNTQ=uuDQuD2mJt9fsCf / scenecut=40 / hist-scenecut=0 / radl=0 / max-cu-size=64 / min-cu-size=8 / me=3 / subme=7 / merange=48 / rdoq-level=0 / rd=4 / rdpenalty=0 / dynamic-rd=0.00 / no-rd-refine / ----- / cutree / sao / no-rect / no-amp / no-open-gop / wpp / no-pmode / no-pme / no-psnr / no-ssim / nr-intra=0 / nr-inter=0 / no-constrained-intra / no-strong-intra-smoothing / max-tu-size=32 / tu-inter-depth=1 / tu-intra-depth=1 / limit-tu=0 / qg-size=32 / qpmax=69 / qpmin=0 / ----- / cpuid=533541111039 / frame-threads=4 / numa-pools=+ / log-level=2 / input-csp=1 / input-res=1920x802 / interlace=0 / level-idc=0 / high-tier=1 / uhd-bd=0 / no-allow-non-conformance / no-repeat-headers / aud / no-hrd / info / hash=0 / no-temporal-layers / lookahead-slices=0 / no-splice / no-intra-refresh / no-ssim-rd / signhide / no-tskip / max-merge=3 / temporal-mvp / no-frame-dup / no-hme / no-analyze-src-pics / no-sao-non-deblock / selective-sao=4 / early-skip / rskip / no-fast-intra / no-tskip-fast / no-splitrd-skip / zone-count=0 / no-strict-cbr / no-rc-grain / no-const-vbv / sar=0 / overscan=0 / videoformat=5 / range=0 / colorprim=2 / transfer=2 / colormatrix=2 / chromaloc=0 / display-window=0 / cll=0,0 / min-luma=0 / max-luma=1023 / log2-max-poc-lsb=8 / vui-timing-info / vui-hrd-info / slices=1 / no-opt-qp-pps / no-opt-ref-list-length-pps / no-multi-pass-opt-rps / scenecut-bias=0.05 / hist-threshold=0.03 / no-opt-cu-delta-qp / no-aq-motion / no-hdr10 / no-hdr10-opt / no-dhdr10-opt / no-idr-recovery-sei / analysis-reuse-level=0 / analysis-save-reuse-level=0 / analysis-load-reuse-level=0 / scale-factor=0 / refine-intra=0 / refine-inter=0 / refine-mv=1 / refine-ctu-distortion=0 / no-limit-sao / ctu-info=0 / no-lowpass-dct / refine-analysis-type=0 / copy-pic=1 / max-ausize-factor=1.0 / no-dynamic-refine / no-single-sei / no-hevc-aq / no-svt / no-field / qp-adaptation-range=1.00 / scenecut-aware-qp=0conformance-window-offsets / right=0 / bottom=0 / NTMzNTQ= / decoder-max-rate=0 / no-vbv-live-multi-pass

  33. Language : English

  34. Default : Yes

  35. Forced : No


  36. Audio

  37. ID : 1

  38. ID in the original source medium : 4352 (0x1100)

  39. Format : DTS

  40. Format/Info : Digital Theater Systems

  41. Codec ID : A_DTS

  42. Duration : 1 h 38 min

  43. Bit rate mode : Constant

  44. Bit rate : 1 509 kb/s

  45. Channel(s) : 6 channels

  46. Channel layout : C L R Ls Rs LFE

  47. Sampling rate : 48.0 kHz

  48. Frame rate : 93.750 FPS (512 SPF)

  49. Bit depth : 16 bits

  50. Compression mode : Lossy

  51. Stream size : 1.04 GiB (23%)

  52. Language : English

  53. Default : Yes

  54. Forced : No

  55. Original source medium : Blu-ray


  56. Text #1

  57. ID : 2

  58. ID in the original source medium : 4608 (0x1200)

  59. Format : PGS

  60. Muxing mode : zlib

  61. Codec ID : S_HDMV/PGS

  62. Codec ID/Info : Picture based subtitle format used on BDs/HD-DVDs

  63. Duration : 1 h 30 min

  64. Bit rate : 14.9 kb/s

  65. Count of elements : 1466

  66. Stream size : 9.67 MiB (0%)

  67. Title : eng

  68. Language : English

  69. Default : Yes

  70. Forced : No

  71. Original source medium : Blu-ray


  72. Text #2

  73. ID : 3

  74. ID in the original source medium : 4610 (0x1202)

  75. Format : PGS

  76. Muxing mode : zlib

  77. Codec ID : S_HDMV/PGS

  78. Codec ID/Info : Picture based subtitle format used on BDs/HD-DVDs

  79. Duration : 1 h 36 min

  80. Bit rate : 7 679 b/s

  81. Count of elements : 918

  82. Stream size : 5.29 MiB (0%)

  83. Title : cht

  84. Language : Chinese

  85. Default : No

  86. Forced : No

  87. Original source medium : Blu-ray


  88. Text #3

  89. ID : 4

  90. ID in the original source medium : 4611 (0x1203)

  91. Format : PGS

  92. Muxing mode : zlib

  93. Codec ID : S_HDMV/PGS

  94. Codec ID/Info : Picture based subtitle format used on BDs/HD-DVDs

  95. Duration : 1 h 36 min

  96. Bit rate : 7 595 b/s

  97. Count of elements : 914

  98. Stream size : 5.23 MiB (0%)

  99. Title : chs

  100. Language : Chinese

  101. Default : No

  102. Forced : No

  103. Original source medium : Blu-ray


  104. Menu

  105. 00:00:00.000 : en:第 01 章

  106. 00:04:06.371 : en:第 02 章

  107. 00:08:39.477 : en:第 03 章

  108. 00:13:10.790 : en:第 04 章

  109. 00:19:12.776 : en:第 05 章

  110. 00:24:10.657 : en:第 06 章

  111. 00:28:03.890 : en:第 07 章

  112. 00:31:33.933 : en:第 08 章

  113. 00:37:15.107 : en:第 09 章

  114. 00:41:25.941 : en:第 10 章

  115. 00:45:21.927 : en:第 11 章

  116. 00:50:37.242 : en:第 12 章

  117. 00:55:42.797 : en:第 13 章

  118. 01:02:19.861 : en:第 14 章

  119. 01:09:26.537 : en:第 15 章

  120. 01:18:19.653 : en:第 16 章




复制代码



文件下载


除非特别注明,本文『屏住呼吸2[中文字幕].Don't.Breathe.2.2021.1080p.BluRay.x265.10bit.DTS-btbt9527.com 4.41GB』来源于互联网机器人自动抓取,非本站原创。 浮游电影网不对本文拥有版权,如有侵犯,请联系邮箱:fuyouu#yandex.com[#换成@]投诉。我们会在15个工作日内删除。 但烦请转载时请标明出处:“本文转载于『浮游电影网』,原文地址:https://www.fuyouu.com/19238.html

评论吧骚年!

发表你的见解   

昵称*

E-mail*(建议输入,以便收到博主回复的提示邮件)

验证码*

您可以使用eMule或eMule Mod(Windows)、aMule(Win、Linux、Mac)等软件下载eD2k链接。。
eMule收藏集(.emulecollection)文件是您选中的所有链接的列表文件。eMule可以直接下载它们。
按住SHIFT键选择可以选中多个选择框。
可用文件名和大小选择器来选择文件。
文件名选择器帮您根据文件名称或后缀来选择文件。不分大小写。
符号使用:
和:空格( )、+
不包含:-
或:|
转义:一对英文引号("");
匹配开头:^
匹配结尾:$
例如:
选中所有名称中包含有“eMule”或“0.49c”字眼,但不包含有“exe”字眼的:emule|0.49c -exe
选中所有名称的开头是“eMule”,结尾是“0.49c”的:^emule 0.49c$
选中所有名称中带有“eMule 0.49c”的(必须是“eMule 0.49c”,中间没有别的字符,不能是“eMule fake 0.49c”),需要转义:"emule 0.49c"
大小选择器帮您根据文件大小选择文件。