当前位置: 首页 >> 欧美电影 >> 尸骨无存2[中文字幕].Cabin.Fever.2.Spring.Fever.2009.1080p.BluRay.x264.DTS-btbt9527.com 7.79GB >> 正文

尸骨无存2[中文字幕].Cabin.Fever.2.Spring.Fever.2009.1080p.BluRay.x264.DTS-btbt9527.com 7.79GB

2021年12月10日 22:06:46     电影发布:来源于网络     电影分类:欧美电影     评论(0)    

尸骨无存2[中文字幕].Cabin.Fever.2.Spring.Fever.2009.1080p.BluRay.x264.DTS btbt9527.com 7.79GB 恐怖片 惊悚片 欧美电影  第1张

◎译 名 尸骨无存2

◎片 名 Cabin Fever 2: Spring Fever

◎年 代 2009

◎产 地 美国

◎类 别 惊悚 / 恐怖

◎语 言 英语

◎上映日期 2009

◎IMDb链接 https://www.imdb.com/title/tt0961722/

◎豆瓣评分 5.5/10 (4051人评价)

◎豆瓣链接 https://movie.douban.com/subject/2051452/

◎片 长 86 分钟

◎导 演 缇·威斯特 Ti West (id:1027452)

◎编 剧 缇·威斯特 Ti West (id:1027452)

兰迪·珀尔斯坦 Randy Pearlstein (id:1045483)

Joshua Malkin Joshua Malkin (id:1290809)

◎演 员 莱德尔·斯特朗 Rider Strong (id:1036361)

诺阿·西甘 Noah Segan (id:1027909)

亚历山大·伊塞亚·托马斯 Alexander Isaiah Thomas (id:1227578)

Mary Katherine White (id:1227774)

Caitlin Coons (id:1231869)

Lila Lucchetti (id:1241525)

Sanethia Dresch (id:1234727)

Amanda Jelks Amanda Jelks (id:1235827)

Anderson Boyd (id:1240917)

Amber Nann (id:1242725)

Lisa Hellen Bates (id:1255413)

Regan Deal Regan Deal (id:1336424)

Ira Menard (id:1257807)

Myles Scott (id:1271388)

拉瑞·凡斯登 Larry Fessenden (id:1283643)

阿莱西·瓦塞尔 Alexi Wasser (id:1208082)

Mark Borchardt Mark Borchardt (id:1025051)

贾达·弗雷德兰德 Judah Friedlander (id:1032085)

杰赛普·安德鲁斯 Giuseppe Andrews (id:1048164)

乔·斯万博格 Joe Swanberg (id:1050208)

安德莉亚·鲍威尔 Andrea Powell (id:1056140)

迈克尔·鲍文 Michael Bowen (id:1076551)

Michael L. Nesbitt Michael L. Nesbitt (id:1129601)

加布里埃尔·图特 Gabrielle Tuite (id:1152677)

小托马斯·布莱克 Thomas Blake Jr. (id:1175775)

Brenden Donovan Brenden Donovan (id:1184760)

迈卡沙内巴林杰 Micah Shane Ballinger (id:1195876)

泰勒·科瓦尔斯基 Taylor Kowalski (id:1199810)

Patricia A. Selznick Patricia A. Selznick (id:1205109)

Jonathan Sachar Jonathan Sachar (id:1023394)

Mary Aloe Mary Aloe (id:1060992)

Jonathan Sachar Jonathan Sachar (id:1023394)

Christopher Rutter Christopher Rutter (id:1306619)

山姆·弗罗利奇 Sam Froelich (id:1029142)

劳伦·默斯 Lauren Moews (id:1029378)

杰森·休伊特 Jason Hewitt (id:1045528)

Ryan Shore Ryan Shore (id:1014347)

Tim Grimes Tim Grimes (id:1304702)

杰德·希莉 Jade Healy (id:1014967)

Robert Kato DeStefan (id:1224360)

Andrea Redder (id:1234283)

◎标 签 血腥 / 恐怖 / 美国 / 惊悚 / B级片 / 美国电影 / 病毒 / 恐怖电影

◎简 介

第一集的病毒再次袭来!自从他的朋友遭殃之后,保罗这次能否逃过劫难呢?

这一次恐怖事件的场景被设在了高中,一种极具腐蚀性的污染水源被装瓶送入校园,出现在高中返校舞会上,毫不知情的学生们在饮水后,开始吐血、腐烂、最终死亡。

  1. ##### MediaInfo ######

  2. General

  3. Unique ID : 250233408792249057064307573401414534282 (0xBC41339605B4C190F9BC84F8C94C048A)

  4. Complete name : [email protected]ome.mkv

  5. Format : Matroska

  6. Format version : Version 4

  7. File size : 7.79 GiB

  8. Duration : 1 h 26 min

  9. Overall bit rate : 13.0 Mb/s

  10. Movie name : Cabin Fever 2

  11. Encoded date : UTC 2021-11-30 14:11:00

  12. Writing application : mkvmerge v63.0.0 ('Everything') 64-bit

  13. Writing library : libebml v1.4.2 + libmatroska v1.6.4

  14. Cover : Yes

  15. Attachments : cover.jpg


  16. Video

  17. ID : 1

  18. Format : AVC

  19. Format/Info : Advanced Video Codec

  20. Format profile : [email protected]

  21. Format settings : CABAC / 4 Ref Frames

  22. Format settings, CABAC : Yes

  23. Format settings, Reference frames : 4 frames

  24. Codec ID : V_MPEG4/ISO/AVC

  25. Duration : 1 h 26 min

  26. Bit rate : 11.4 Mb/s

  27. Width : 1 920 pixels

  28. Height : 816 pixels

  29. Display aspect ratio : 2.35:1

  30. Frame rate mode : Constant

  31. Frame rate : 23.976 (24000/1001/53354) FPS

  32. Color space : YUV

  33. Chroma subsampling : 4:2:0

  34. Bit depth : 8 bits

  35. Scan type : Progressive

  36. Bits/(Pixel*Frame) : 0.303

  37. Stream size : 6.84 GiB (88%)

  38. Writing library : x264 core 164 r3075+55M 97d28bb t_mod_New [(8 & 10)[email protected] X86_64]

  39. Encoding settings : cabac=1 / ref=4 / deblock=1:-3:-3 / analyse=0x3:0x133 / me=umh / subme=11 / psy=1 / fade_compensate=0.00 / psy_rd=1.00:0.00 / mixed_ref=1 / me_range=48 / chroma_me=1 / trellis=2 / 8x8dct=1 / cqm=0 / deadzone=21,11 / fast_pskip=0 / chroma_qp_offset=-3 / threads=24 / lookahead_threads=6 / sliced_threads=0 / nr=0 / decimate=0 / interlaced=0 / NTMzNTQ= / bluray_compat=0 / constrained_intra=0 / fgo=0 / bframes=11 / b_pyramid=2 / b_adapt=2 / b_bias=0 / direct=3 / weightb=1 / open_gop=0 / weightp=2 / keyint=240 / keyint_min=1 / NTMzNTQ=uuDQuD2mJt9fsCf / scenecut=40 / intra_refresh=0 / rc_lookahead=72 / rc=crf / mbtree=0 / crf=19.0000 / qcomp=0.60 / qpmin=0:0:0 / qpmax=69:69:69 / qpstep=4 / vbv_maxrate=62500 / vbv_bufsize=78125 / crf_max=0.0 / nal_hrd=none / filler=0 / NTMzNTQ=LmsMAP37EqsCpk / ip_ratio=1.40 / pb_ratio=1.30 / aq=3:0.80 / aq-sensitivity=10.00 / aq-factor=1.00:1.00:1.00 / aq2=0 / aq3=0

  40. Default : Yes

  41. Forced : No


  42. Audio

  43. ID : 2

  44. ID in the original source medium : 4353 (0x1101)

  45. Format : DTS

  46. Format/Info : Digital Theater Systems

  47. Codec ID : A_DTS

  48. Duration : 1 h 26 min

  49. Bit rate mode : Constant

  50. Bit rate : 1 509 kb/s

  51. Channel(s) : 6 channels

  52. Channel layout : C L R Ls Rs LFE

  53. Sampling rate : 48.0 kHz

  54. Frame rate : 93.750 FPS (512 SPF)

  55. Bit depth : 16 bits

  56. Compression mode : Lossy

  57. Stream size : 930 MiB (12%)

  58. Language : English

  59. Default : Yes

  60. Forced : No

  61. Original source medium : Blu-ray


  62. Text #1

  63. ID : 3

  64. ID in the original source medium : 4610 (0x1202)

  65. Format : PGS

  66. Muxing mode : zlib

  67. Codec ID : S_HDMV/PGS

  68. Codec ID/Info : Picture based subtitle format used on BDs/HD-DVDs

  69. Duration : 1 h 25 min

  70. Bit rate : 36.4 kb/s

  71. Count of elements : 1131

  72. Stream size : 22.3 MiB (0%)

  73. Title : chs&eng

  74. Language : Chinese

  75. Default : Yes

  76. Forced : No

  77. Original source medium : Blu-ray


  78. Text #2

  79. ID : 4

  80. ID in the original source medium : 4611 (0x1203)

  81. Format : PGS

  82. Muxing mode : zlib

  83. Codec ID : S_HDMV/PGS

  84. Codec ID/Info : Picture based subtitle format used on BDs/HD-DVDs

  85. Duration : 1 h 25 min

  86. Bit rate : 36.7 kb/s

  87. Count of elements : 1131

  88. Stream size : 22.4 MiB (0%)

  89. Title : cht&eng

  90. Language : Chinese

  91. Default : No

  92. Forced : No

  93. Original source medium : Blu-ray


  94. Text #3

  95. ID : 5

  96. ID in the original source medium : 4612 (0x1204)

  97. Format : PGS

  98. Muxing mode : zlib

  99. Codec ID : S_HDMV/PGS

  100. Codec ID/Info : Picture based subtitle format used on BDs/HD-DVDs

  101. Duration : 1 h 25 min

  102. Bit rate : 20.6 kb/s

  103. Count of elements : 1131

  104. Stream size : 12.6 MiB (0%)

  105. Title : chs

  106. Language : Chinese

  107. Default : No

  108. Forced : No

  109. Original source medium : Blu-ray


  110. Text #4

  111. ID : 6

  112. ID in the original source medium : 4613 (0x1205)

  113. Format : PGS

  114. Muxing mode : zlib

  115. Codec ID : S_HDMV/PGS

  116. Codec ID/Info : Picture based subtitle format used on BDs/HD-DVDs

  117. Duration : 1 h 25 min

  118. Bit rate : 20.9 kb/s

  119. Count of elements : 1131

  120. Stream size : 12.7 MiB (0%)

  121. Title : cht

  122. Language : Chinese

  123. Default : No

  124. Forced : No

  125. Original source medium : Blu-ray


  126. Text #5

  127. ID : 7

  128. Format : PGS

  129. Muxing mode : zlib

  130. Codec ID : S_HDMV/PGS

  131. Codec ID/Info : Picture based subtitle format used on BDs/HD-DVDs

  132. Duration : 1 h 25 min

  133. Bit rate : 27.8 kb/s

  134. Count of elements : 1068

  135. Stream size : 17.1 MiB (0%)

  136. Title : eng

  137. Language : English

  138. Default : No

  139. Forced : No


  140. Menu

  141. 00:00:00.000 : en:Chapter 01

  142. 00:06:24.967 : en:Chapter 02

  143. 00:15:06.280 : en:Chapter 03

  144. 00:22:04.740 : en:Chapter 04

  145. 00:28:34.713 : en:Chapter 05

  146. 00:33:36.222 : en:Chapter 06

  147. 00:39:51.472 : en:Chapter 07

  148. 00:46:09.641 : en:Chapter 08

  149. 00:54:06.368 : en:Chapter 09

  150. 01:00:07.895 : en:Chapter 10

  151. 01:05:58.079 : en:Chapter 11

  152. 01:12:43.859 : en:Chapter 12

  153. 01:19:08.952 : en:Chapter 13


文件下载


除非特别注明,本文『尸骨无存2[中文字幕].Cabin.Fever.2.Spring.Fever.2009.1080p.BluRay.x264.DTS-btbt9527.com 7.79GB』来源于互联网机器人自动抓取,非本站原创。 浮游电影网不对本文拥有版权,如有侵犯,请联系邮箱:fuyouu#yandex.com[#换成@]投诉。我们会在15个工作日内删除。 但烦请转载时请标明出处:“本文转载于『浮游电影网』,原文地址:https://www.fuyouu.com/19235.html

评论吧骚年!

发表你的见解   

昵称*

E-mail*(建议输入,以便收到博主回复的提示邮件)

验证码*

您可以使用eMule或eMule Mod(Windows)、aMule(Win、Linux、Mac)等软件下载eD2k链接。。
eMule收藏集(.emulecollection)文件是您选中的所有链接的列表文件。eMule可以直接下载它们。
按住SHIFT键选择可以选中多个选择框。
可用文件名和大小选择器来选择文件。
文件名选择器帮您根据文件名称或后缀来选择文件。不分大小写。
符号使用:
和:空格( )、+
不包含:-
或:|
转义:一对英文引号("");
匹配开头:^
匹配结尾:$
例如:
选中所有名称中包含有“eMule”或“0.49c”字眼,但不包含有“exe”字眼的:emule|0.49c -exe
选中所有名称的开头是“eMule”,结尾是“0.49c”的:^emule 0.49c$
选中所有名称中带有“eMule 0.49c”的(必须是“eMule 0.49c”,中间没有别的字符,不能是“eMule fake 0.49c”),需要转义:"emule 0.49c"
大小选择器帮您根据文件大小选择文件。