当前位置: 首页 >> 国产电影 >> 人鱼之海牢物怪[国语配音/中文字幕].Mermaid.Sea.Prison.Monster.2021.2160p.WEB-DL.H265.AAC-btbt9527.com 2.44GB >> 正文

人鱼之海牢物怪[国语配音/中文字幕].Mermaid.Sea.Prison.Monster.2021.2160p.WEB-DL.H265.AAC-btbt9527.com 2.44GB

2021年12月10日 11:13:45     电影发布:来源于网络     电影分类:国产电影     评论(0)    

人鱼之海牢物怪[国语配音/中文字幕].Mermaid.Sea.Prison.Monster.2021.2160p.WEB DL.H265.AAC btbt9527.com 2.44GB 奇幻片 剧情片 国产电影  第1张

◎译 名 人鱼之海牢物怪

◎年 代 2021

◎产 地 中国大陆

◎语 言 汉语普通话

◎上映日期 2021-12-08(中国大陆)

◎IMDb链接 https://www.imdb.com/title//

◎豆瓣链接 https://movie.douban.com/subject/35683267/

◎导 演 蔡峻峰 Junfeng Cai (id:1434195)

◎演 员 赵樱子 Yingzi Zhao (id:1329785)

白那日苏 Narisu Bai (id:1390544)

◎标 签 电影 / 魔幻 / 中国大陆 / 网络电影 / 恐怖 / 奇幻 / 中国电影 / 中国

◎简 介

本片讲述了镇海将军陈峥为了查明妻子被杀一案,意外发现朝中阴谋,并在单纯善良的人鱼帮助下,铲除邪恶之人,重还朝中安宁的故事。该片中的人鱼不仅善良,更有面对邪恶势力不低头的勇气,正是她的勇气感染了陈峥,让一直为了家族荣誉隐忍过活的陈峥在最后能够拾起斗志,打败邪恶势力,重还百姓安宁。本片通过陈峥对待朝廷高官的态度转变告诉我们要有面对真相的勇气,不是一味的隐忍就能全身而退,反而是鼓足勇气面对真相,敢于探索事实,才能够获得最终的成功,不仅能够保护自己,更能够真正的保护到至亲至爱的人。本片更是通过人鱼这一角色倡导我们要保持真善美的初心,都要秉持善良的本性,知恩图报,不为一己私欲去损害他人的利益。

  1. ##### MediaInfo ######

  2. General

  3. Complete name : 人鱼之海牢物怪[email protected]Home.mp4

  4. Format : MPEG-4

  5. Format profile : Base Media

  6. Codec ID : isom (isom/iso2/mp41)

  7. File size : 2.44 GiB

  8. Duration : 1 h 23 min

  9. Overall bit rate mode : Variable

  10. Overall bit rate : 4 174 kb/s

  11. Writing application : Lavf58.17.103


  12. Video

  13. ID : 1

  14. Format : HEVC

  15. Format/Info : High Efficiency Video Coding

  16. Format profile : [email protected]@Main

  17. Codec ID : hev1

  18. Codec ID/Info : High Efficiency Video Coding

  19. Duration : 1 h 23 min

  20. Bit rate : 3 978 kb/s

  21. Width : 3 840 pixels

  22. Height : 1 624 pixels

  23. Display aspect ratio : 2.35:1

  24. Frame rate mode : Constant

  25. Frame rate : 25.000 FPS

  26. Color space : YUV

  27. Chroma subsampling : 4:2:0

  28. Bit depth : 8 bits

  29. Bits/(Pixel*Frame) : 0.026

  30. Stream size : 2.32 GiB (95%)

  31. Codec configuration box : hvcC


  32. Audio

  33. ID : 2

  34. Format : AAC LC

  35. Format/Info : Advanced Audio Codec Low Complexity

  36. Codec ID : mp4a-40-2

  37. Duration : 1 h 23 min

  38. Bit rate mode : Variable

  39. Bit rate : 192 kb/s

  40. Maximum bit rate : 194 kb/s

  41. Channel(s) : 2 channels

  42. Channel layout : L R

  43. Sampling rate : 44.1 kHz

  44. Frame rate : 43.066 FPS (1024 SPF)

  45. Compression mode : Lossy

  46. Stream size : 113 MiB (5%)

  47. Default : Yes

  48. Alternate group : 1




复制代码



文件下载


除非特别注明,本文『人鱼之海牢物怪[国语配音/中文字幕].Mermaid.Sea.Prison.Monster.2021.2160p.WEB-DL.H265.AAC-btbt9527.com 2.44GB』来源于互联网机器人自动抓取,非本站原创。 浮游电影网不对本文拥有版权,如有侵犯,请联系邮箱:fuyouu#yandex.com[#换成@]投诉。我们会在15个工作日内删除。 但烦请转载时请标明出处:“本文转载于『浮游电影网』,原文地址:https://www.fuyouu.com/19222.html

评论吧骚年!

发表你的见解   

昵称*

E-mail*(建议输入,以便收到博主回复的提示邮件)

验证码*

您可以使用eMule或eMule Mod(Windows)、aMule(Win、Linux、Mac)等软件下载eD2k链接。。
eMule收藏集(.emulecollection)文件是您选中的所有链接的列表文件。eMule可以直接下载它们。
按住SHIFT键选择可以选中多个选择框。
可用文件名和大小选择器来选择文件。
文件名选择器帮您根据文件名称或后缀来选择文件。不分大小写。
符号使用:
和:空格( )、+
不包含:-
或:|
转义:一对英文引号("");
匹配开头:^
匹配结尾:$
例如:
选中所有名称中包含有“eMule”或“0.49c”字眼,但不包含有“exe”字眼的:emule|0.49c -exe
选中所有名称的开头是“eMule”,结尾是“0.49c”的:^emule 0.49c$
选中所有名称中带有“eMule 0.49c”的(必须是“eMule 0.49c”,中间没有别的字符,不能是“eMule fake 0.49c”),需要转义:"emule 0.49c"
大小选择器帮您根据文件大小选择文件。