当前位置: 首页 >> 港台电影 >> 寒战[国粤语配音/中文字幕].Cold.War.2012.1080p.BluRay.x265.10bit.DTS.2Audio-btbt9527.com 3.76GB >> 正文

寒战[国粤语配音/中文字幕].Cold.War.2012.1080p.BluRay.x265.10bit.DTS.2Audio-btbt9527.com 3.76GB

2021年12月10日 11:03:32     电影发布:来源于网络     电影分类:港台电影     评论(0)    

寒战[国粤语配音/中文字幕].Cold.War.2012.1080p.BluRay.x265.10bit.DTS.2Audio btbt9527.com 3.76GB 犯罪片 动作片 剧情片 港台电影  第1张

◎译 名 寒战 / Cold War / Cold War 香港警察 两种正义(日)

◎片 名 寒戰

◎年 代 2012

◎产 地 中国香港 / 中国大陆

◎类 别 剧情 / 动作 / 犯罪

◎语 言 粤语 / 汉语普通话

◎上映日期 2012-11-08(中国大陆/中国香港)

◎IMDb链接 https://www.imdb.com/title/tt2186715/

◎豆瓣评分 7.5/10 (339641人评价)

◎豆瓣链接 https://movie.douban.com/subject/6890730/

◎片 长 102分钟

◎导 演 梁乐民 Lok Man Leung (id:1318764)

陆剑青 Kim-ching Luk (id:1318745)

◎编 剧 梁乐民 Lok Man Leung (id:1318764)

陆剑青 Kim-ching Luk (id:1318745)

◎演 员 郭富城 Aaron Kwok (id:1041390)

梁家辉 Tony Leung (id:1118167)

李治廷 Aarif Lee (id:1274292)

彭于晏 Eddie Peng (id:1013782)

杨采妮 Charlie Yeung (id:1018373)

马伊琍 Yili Ma (id:1011935)

林家栋 Ka Tung Lam (id:1050329)

安志杰 Andy On (id:1045364)

钱嘉乐 Kar Lok Chin (id:1025476)

尹子维 Terence Yin (id:1045571)

王敏德 Michael Wong (id:1162139)

黄芝琪 Grace Huang (id:1323456)

郑欣宜 Joyce Cheng (id:1007512)

文峰 Byron Mann (id:1314929)

贾晓晨 J.J. Jia (id:1274760)

刘德华 Andy Lau (id:1054424)

何华超 Tony Ho (id:1286723)

李天翔 Eric Li Tin Cheung (id:1312744)

徐佳琦 Jiaqi Xu (id:1313919)

陈嘉辉 Ka-Fai Chan (id:1315714)

韦家雄 Ka-Hung Wai (id:1327469)

何卓莹 Angel Ho (id:1400282)

徐家杰 Alex Tsui (id:1326651)

李凯贤 Brian Lee (id:1374560)

辛格·哈提汗·比托 Singh Hartihan Bitto (id:1333958)

何伟业 Wai-Yip Ho (id:1363760)

林慧倩 Giselle Lam (id:1380809)

姚文基 Man-kei Yiu (id:1435360)

刘德华 Andy Lau (id:1054424)

江志强 William Kong (id:1288870)

邓汉强 Matthew Tang (id:1308894)

林炳坤 Bingkun Lin (id:1350348)

宋岱 Dai Song (id:1395689)

管东铫 Catherine Kwan (id:1326685)

钱荣威 Wing-Wai Chin (id:1418361)

金培达 Peter Kam (id:1288082)

关智耀 Jason Kwan Chi-Yiu (id:1318237)

谢忠道 Kenny Tse (id:1319336)

张家杰 Jeff Cheung (id:1391313)

曾景祥 Kinson Tsang (id:1299575)

郑文政 Cecil Man Ching Cheng (id:1326659)

黄伟辉 Wong Wai-Fai (id:1275163)

黄海 Hai Huang (id:1401245)

符晓薇 Leanne Fu (id:1356845)

◎标 签 警匪 / 犯罪 / 悬疑 / 2012 / 动作 / 剧情 / 中国香港 / 人性

◎简 介

作为亚洲金融中心的香港被称作“最安全的城市”,岂料警局接到一通匿名电话,对方声称劫持了警队的一辆前线冲锋车以及车内的五名警员和武器装备。此次事件引起了香港警队高层的高度重视,适逢处长(王敏德 饰)出访国外,此时由鹰派人物行动副处长李文彬(梁家辉 饰)与年轻的管理副处长刘杰辉(郭富城 饰)一起负责这次案件,并将行动命名为“寒战”,李文彬任总指挥。李文彬的儿子(彭于晏 饰)也是人质之一,刘杰辉因此对李文彬父子产生怀疑。与此同时,匪徒展开了进一步行动:警察被杀、爆炸案频发……到底是谁在将整个警队玩弄于鼓掌之中?香港真的是“最安全的城市”吗?

◎获奖情况 (共24项)

第50届台北金马影展 (2013)

金马奖 最佳男主角(提名)

└──梁家辉 (id:1118167)

金马奖 最佳新导演(提名)

第32届香港电影金像奖 (2013)

最佳电影

最佳导演

最佳编剧

最佳男主角

└──梁家辉 (id:1118167)

最佳男配角(提名)

└──林家栋 (id:1050329)

最佳新演员

└──徐家杰 (id:1326651)

最佳摄影(提名)

最佳剪接

最佳动作设计(提名)

最佳原创电影音乐

└──金培达 (id:1288082)

最佳音响效果

└──曾景祥 (id:1299575)

最佳视觉效果

└──郑文政 (id:1326659)

第32届大众电影百花奖 (2014)

最佳女配角(提名)

└──杨采妮 (id:1018373)

最佳新人(提名)

└──彭于晏 (id:1013782)

第15届中国电影华表奖 (2013)

优秀合拍片奖

第7届亚洲电影大奖 (2013)

我最喜爱的男女主角 我最喜爱的男主角(提名)

└──梁家辉 (id:1118167)

最佳男主角(提名)

└──梁家辉 (id:1118167)

第13届华语电影传媒大奖 (2013)

最佳男主角

└──梁家辉 (id:1118167)

第3届豆瓣电影鑫像奖 (2013)

鑫豆单元 最佳影片(华语)(提名)

鑫豆单元 最佳导演(华语)(提名)

鑫豆单元 最佳男演员(华语)(提名)

豆渣单元 最渣男演员(华语)(提名)

└──李治廷 (id:1274292)

  1. ##### MediaInfo ######

  2. General

  3. Unique ID : 171129092506353548655010455675644664204 (0x80BE43AD2FF944328F0E4292190BD98C)

  4. Complete name : [email protected]kv

  5. Format : Matroska

  6. Format version : Version 4

  7. File size : 3.76 GiB

  8. Duration : 1 h 41 min

  9. Overall bit rate : 5 284 kb/s

  10. Movie name : Cold War

  11. Encoded date : UTC 2021-12-03 03:47:37

  12. Writing application : mkvmerge v63.0.0 ('Everything') 64-bit

  13. Writing library : libebml v1.4.2 + libmatroska v1.6.4

  14. Cover : Yes

  15. Attachments : cover.jpg


  16. Video

  17. ID : 1

  18. Format : HEVC

  19. Format/Info : High Efficiency Video Coding

  20. Format profile : Main [email protected]@Main

  21. Codec ID : V_MPEGH/ISO/HEVC

  22. Duration : 1 h 41 min

  23. Bit rate : 3 350 kb/s

  24. Width : 1 920 pixels

  25. Height : 800 pixels

  26. Display aspect ratio : 2.40:1

  27. Frame rate mode : Constant

  28. Frame rate : 24.000 FPS

  29. Color space : YUV

  30. Chroma subsampling : 4:2:0

  31. Bit depth : 10 bits

  32. Bits/(Pixel*Frame) : 0.091

  33. Stream size : 2.38 GiB (63%)

  34. Writing library : x265 3.5+2-g2b25c9ba0+45:[Windows][GCC 10.2.0][64 bit] Yuuki 10bit+8bit+12bit

  35. Encoding settings : rc=crf / crf=16.0000 / qcomp=0.65 / qpstep=4 / stats-write=0 / stats-read=0 / no-lossless / no-cu-lossless / aq-mode=3 / aq-strength=0.80 / cbqpoffs=0 / crqpoffs=0 / ipratio=1.40 / pbratio=1.30 / psy-rd=2.00 / psy-rdoq=0.00 / deblock=0:0 / ref=6 / limit-refs=1 / no-limit-modes / bframes=8 / b-adapt=2 / bframe-bias=0 / b-pyramid / b-intra / weightp / weightb / min-keyint=24 / max-keyint=240 / rc-lookahead=24 / gop-lookahead=0 / NTMzNTQ=uuDQuD2mJt9fsCf / scenecut=40 / hist-scenecut=0 / radl=0 / max-cu-size=64 / min-cu-size=8 / me=3 / subme=7 / merange=48 / rdoq-level=0 / rd=4 / rdpenalty=0 / dynamic-rd=0.00 / no-rd-refine / ----- / cutree / sao / no-rect / no-amp / no-open-gop / wpp / no-pmode / pme / no-psnr / no-ssim / nr-intra=0 / nr-inter=0 / no-constrained-intra / no-strong-intra-smoothing / max-tu-size=32 / tu-inter-depth=1 / tu-intra-depth=1 / limit-tu=0 / qg-size=32 / qpmax=69 / qpmin=0 / ----- / cpuid=533541111039 / frame-threads=4 / numa-pools=+ / log-level=2 / input-csp=1 / input-res=1920x800 / interlace=0 / level-idc=0 / high-tier=1 / uhd-bd=0 / no-allow-non-conformance / no-repeat-headers / aud / no-hrd / info / hash=0 / no-temporal-layers / lookahead-slices=0 / no-splice / no-intra-refresh / no-ssim-rd / signhide / no-tskip / max-merge=3 / temporal-mvp / no-frame-dup / no-hme / no-analyze-src-pics / no-sao-non-deblock / selective-sao=4 / early-skip / rskip / no-fast-intra / no-tskip-fast / no-splitrd-skip / zone-count=0 / no-strict-cbr / no-rc-grain / no-const-vbv / sar=0 / overscan=0 / videoformat=5 / range=0 / colorprim=2 / transfer=2 / colormatrix=2 / chromaloc=0 / display-window=0 / cll=0,0 / min-luma=0 / max-luma=1023 / log2-max-poc-lsb=8 / vui-timing-info / vui-hrd-info / slices=1 / no-opt-qp-pps / no-opt-ref-list-length-pps / no-multi-pass-opt-rps / scenecut-bias=0.05 / hist-threshold=0.03 / no-opt-cu-delta-qp / no-aq-motion / no-hdr10 / no-hdr10-opt / no-dhdr10-opt / no-idr-recovery-sei / analysis-reuse-level=0 / analysis-save-reuse-level=0 / analysis-load-reuse-level=0 / scale-factor=0 / refine-intra=0 / refine-inter=0 / refine-mv=1 / refine-ctu-distortion=0 / no-limit-sao / ctu-info=0 / no-lowpass-dct / refine-analysis-type=0 / copy-pic=1 / max-ausize-factor=1.0 / no-dynamic-refine / no-single-sei / no-hevc-aq / no-svt / no-field / qp-adaptation-range=1.00 / scenecut-aware-qp=0conformance-window-offsets / right=0 / bottom=0 / NTMzNTQ= / decoder-max-rate=0 / no-vbv-live-multi-pass

  36. Default : Yes

  37. Forced : No


  38. Audio #1

  39. ID : 2

  40. ID in the original source medium : 4354 (0x1102)

  41. Format : AC-3

  42. Format/Info : Audio Coding 3

  43. Commercial name : Dolby Digital

  44. Codec ID : A_AC3

  45. Duration : 1 h 41 min

  46. Bit rate mode : Constant

  47. Bit rate : 384 kb/s

  48. Channel(s) : 2 channels

  49. Channel layout : L R

  50. Sampling rate : 48.0 kHz

  51. Frame rate : 31.250 FPS (1536 SPF)

  52. Compression mode : Lossy

  53. Stream size : 280 MiB (7%)

  54. Title : Mandarin

  55. Language : Chinese

  56. Service kind : Complete Main

  57. Default : Yes

  58. Forced : No

  59. Original source medium : Blu-ray


  60. Audio #2

  61. ID : 3

  62. ID in the original source medium : 4353 (0x1101)

  63. Format : DTS

  64. Format/Info : Digital Theater Systems

  65. Codec ID : A_DTS

  66. Duration : 1 h 41 min

  67. Bit rate mode : Constant

  68. Bit rate : 1 509 kb/s

  69. Channel(s) : 6 channels

  70. Channel layout : C L R Ls Rs LFE

  71. Sampling rate : 48.0 kHz

  72. Frame rate : 93.750 FPS (512 SPF)

  73. Bit depth : 16 bits

  74. Compression mode : Lossy

  75. Stream size : 1.07 GiB (29%)

  76. Title : Cantonese

  77. Language : Chinese

  78. Default : No

  79. Forced : No

  80. Original source medium : Blu-ray


  81. Text #1

  82. ID : 4

  83. Format : PGS

  84. Muxing mode : zlib

  85. Codec ID : S_HDMV/PGS

  86. Codec ID/Info : Picture based subtitle format used on BDs/HD-DVDs

  87. Duration : 1 h 37 min

  88. Bit rate : 30.2 kb/s

  89. Count of elements : 2661

  90. Stream size : 21.1 MiB (1%)

  91. Title : chs

  92. Language : Chinese

  93. Default : Yes

  94. Forced : No


  95. Text #2

  96. ID : 5

  97. Format : PGS

  98. Muxing mode : zlib

  99. Codec ID : S_HDMV/PGS

  100. Codec ID/Info : Picture based subtitle format used on BDs/HD-DVDs

  101. Duration : 1 h 37 min

  102. Bit rate : 30.5 kb/s

  103. Count of elements : 2661

  104. Stream size : 21.3 MiB (1%)

  105. Title : cht

  106. Language : Chinese

  107. Default : No

  108. Forced : No


  109. Text #3

  110. ID : 6

  111. ID in the original source medium : 4609 (0x1201)

  112. Format : PGS

  113. Muxing mode : zlib

  114. Codec ID : S_HDMV/PGS

  115. Codec ID/Info : Picture based subtitle format used on BDs/HD-DVDs

  116. Duration : 1 h 37 min

  117. Bit rate : 40.9 kb/s

  118. Count of elements : 2747

  119. Stream size : 28.5 MiB (1%)

  120. Title : eng

  121. Language : English

  122. Default : No

  123. Forced : No

  124. Original source medium : Blu-ray


  125. Menu

  126. 00:00:00.000 : en:Chapter 01

  127. 00:06:01.416 : en:Chapter 02

  128. 00:16:52.000 : en:Chapter 03

  129. 00:25:14.750 : en:Chapter 04

  130. 00:34:33.666 : en:Chapter 05

  131. 00:42:19.583 : en:Chapter 06

  132. 00:50:35.958 : en:Chapter 07

  133. 00:58:23.625 : en:Chapter 08

  134. 01:07:48.500 : en:Chapter 09

  135. 01:17:56.958 : en:Chapter 10

  136. 01:27:57.791 : en:Chapter 11

  137. 01:33:34.375 : en:Chapter 12


文件下载


除非特别注明,本文『寒战[国粤语配音/中文字幕].Cold.War.2012.1080p.BluRay.x265.10bit.DTS.2Audio-btbt9527.com 3.76GB』来源于互联网机器人自动抓取,非本站原创。 浮游电影网不对本文拥有版权,如有侵犯,请联系邮箱:fuyouu#yandex.com[#换成@]投诉。我们会在15个工作日内删除。 但烦请转载时请标明出处:“本文转载于『浮游电影网』,原文地址:https://www.fuyouu.com/19216.html

评论吧骚年!

发表你的见解   

昵称*

E-mail*(建议输入,以便收到博主回复的提示邮件)

验证码*

您可以使用eMule或eMule Mod(Windows)、aMule(Win、Linux、Mac)等软件下载eD2k链接。。
eMule收藏集(.emulecollection)文件是您选中的所有链接的列表文件。eMule可以直接下载它们。
按住SHIFT键选择可以选中多个选择框。
可用文件名和大小选择器来选择文件。
文件名选择器帮您根据文件名称或后缀来选择文件。不分大小写。
符号使用:
和:空格( )、+
不包含:-
或:|
转义:一对英文引号("");
匹配开头:^
匹配结尾:$
例如:
选中所有名称中包含有“eMule”或“0.49c”字眼,但不包含有“exe”字眼的:emule|0.49c -exe
选中所有名称的开头是“eMule”,结尾是“0.49c”的:^emule 0.49c$
选中所有名称中带有“eMule 0.49c”的(必须是“eMule 0.49c”,中间没有别的字符,不能是“eMule fake 0.49c”),需要转义:"emule 0.49c"
大小选择器帮您根据文件大小选择文件。