当前位置: 首页 >> 海外电影 >> 钛[中文字幕].Titane.2021.1080p.BluRay.DTS.x265-10bit-btbt9527.com 7.85GB >> 正文

钛[中文字幕].Titane.2021.1080p.BluRay.DTS.x265-10bit-btbt9527.com 7.85GB

2021年12月09日 11:04:46     电影发布:来源于网络     电影分类:海外电影     评论(0)    

钛[中文字幕].Titane.2021.1080p.BluRay.DTS.x265 10bit btbt9527.com 7.85GB 惊悚片 剧情片 海外电影  第1张

◎译 名 钛

◎片 名 Titane

◎年 代 2021

◎产 地 法国 / 比利时

◎类 别 剧情 / 惊悚

◎语 言 法语

◎上映日期 2021-07-13(戛纳电影节) / 2021-07-14(法国) / 2021-10-19(美国网络)

◎IMDb链接 https://www.imdb.com/title/tt10944760/

◎豆瓣评分 6.4/10 (34763人评价)

◎豆瓣链接 https://movie.douban.com/subject/34820925/

◎片 长 108分钟

◎导 演 朱利亚·迪库诺 Julia Ducournau (id:1358263)

◎编 剧 朱利亚·迪库诺 Julia Ducournau (id:1358263)

◎演 员 阿加莎·罗塞勒 Agathe Rousselle (id:1459618)

文森特·林顿 Vincent Lindon (id:1010741)

加朗斯·马里利埃 Garance Marillier (id:1368368)

贝特朗·波尼洛 Bertrand Bonello (id:1054161)

拉明·西索科 Lamine Cissokho (id:1447233)

弗雷德里克·雅尔丹 Frédéric Jardin (id:1021207)

弗洛伦斯·詹纳斯 Florence Janas (id:1398997)

Diong-Kéba Tacu Diong-Kéba Tacu (id:1411866)

La?s Salameh (id:1463484)

◎标 签 法国 / 惊悚 / 2021 / 戛纳 / 女性 / 剧情 / 恐怖 / 金棕榈

◎简 介

艾莉克西亚(阿加莎·罗塞勒 Agathe Rousselle 饰)是一名汽车模特,拥有曼妙身材的他靠着跳艳舞维持生计。艾莉克西亚有一个秘密,那就是他可以和汽车发生性关系,这种扭曲的性癖好深深的影响了他的性格,让他变得暴戾而又冷酷。

艾莉克西亚的父亲文森特(文森特·林顿 Vincent Lindon 饰)是消防队的队长,早些年间,艾莉克西亚因为受不了父亲独断专横的教育方式而离家出走,但是经由某一个契机,在多年之后,艾莉克西亚和父亲团聚了,回到了曾经生活过的家中。文森特无法接受自己的而又如今变成了人妖,想尽了各种方法要矫正他的性别,与此同时,艾莉克西亚震惊的发现自己怀孕了。

◎获奖情况 (共2项)

第74届戛纳电影节 (2021)

主竞赛单元 金棕榈奖

└──朱利亚·迪库诺 (id:1358263)

第31届哥谭独立电影奖 (2021)

最佳国际影片(提名)

└──朱利亚·迪库诺 (id:1358263)

  1. ##### MediaInfo ######

  2. General

  3. Unique ID : 323782639177894878762114492911495971738 (0xF396449D633705D5DA6C877A756C839A)

  4. Complete name : [email protected]

  5. Format : Matroska

  6. Format version : Version 4

  7. File size : 7.85 GiB

  8. Duration : 1 h 47 min

  9. Overall bit rate mode : Variable

  10. Overall bit rate : 10.4 Mb/s

  11. Movie name : Titane 2021 1080p BluRay DTS [email protected]

  12. Encoded date : UTC 2021-12-05 15:02:34

  13. Writing application : mkvmerge v38.0.0 ('The Silent Type') 64-bit

  14. Writing library : libebml v1.3.9 + libmatroska v1.5.2


  15. Video

  16. ID : 1

  17. Format : HEVC

  18. Format/Info : High Efficiency Video Coding

  19. Format profile : Main [email protected]@High

  20. Codec ID : V_MPEGH/ISO/HEVC

  21. Duration : 1 h 47 min

  22. Bit rate : 8 741 kb/s

  23. Width : 1 920 pixels

  24. Height : 800 pixels

  25. Display aspect ratio : 2.40:1

  26. Frame rate mode : Constant

  27. Frame rate : 24.000 FPS

  28. Color space : YUV

  29. Chroma subsampling : 4:2:0

  30. Bit depth : 10 bits

  31. Bits/(Pixel*Frame) : 0.237

  32. Stream size : 6.59 GiB (84%)

  33. Title : [email protected]

  34. Writing library : x265 - H.265/HEVC codec

  35. Default : Yes

  36. Forced : No


  37. Audio

  38. ID : 2

  39. Format : DTS XLL

  40. Format/Info : Digital Theater Systems

  41. Commercial name : DTS-HD Master Audio

  42. Codec ID : A_DTS

  43. Duration : 1 h 47 min

  44. Bit rate mode : Variable

  45. Bit rate : 1 656 kb/s

  46. Channel(s) : 2 channels

  47. Sampling rate : 48.0 kHz

  48. Frame rate : 93.750 FPS (512 SPF)

  49. Bit depth : 24 bits

  50. Compression mode : Lossless

  51. Stream size : 1.25 GiB (16%)

  52. Title : French

  53. Language : French

  54. Default : Yes

  55. Forced : No


  56. Text

  57. ID : 3

  58. Format : PGS

  59. Muxing mode : zlib

  60. Codec ID : S_HDMV/PGS

  61. Codec ID/Info : Picture based subtitle format used on BDs/HD-DVDs

  62. Duration : 1 h 39 min

  63. Bit rate : 9 133 b/s

  64. Count of elements : 785

  65. Stream size : 6.51 MiB (0%)

  66. Title : CHS

  67. Language : Chinese

  68. Default : Yes

  69. Forced : No




复制代码




文件下载


除非特别注明,本文『钛[中文字幕].Titane.2021.1080p.BluRay.DTS.x265-10bit-btbt9527.com 7.85GB』来源于互联网机器人自动抓取,非本站原创。 浮游电影网不对本文拥有版权,如有侵犯,请联系邮箱:fuyouu#yandex.com[#换成@]投诉。我们会在15个工作日内删除。 但烦请转载时请标明出处:“本文转载于『浮游电影网』,原文地址:https://www.fuyouu.com/19209.html

评论吧骚年!

发表你的见解   

昵称*

E-mail*(建议输入,以便收到博主回复的提示邮件)

验证码*

您可以使用eMule或eMule Mod(Windows)、aMule(Win、Linux、Mac)等软件下载eD2k链接。。
eMule收藏集(.emulecollection)文件是您选中的所有链接的列表文件。eMule可以直接下载它们。
按住SHIFT键选择可以选中多个选择框。
可用文件名和大小选择器来选择文件。
文件名选择器帮您根据文件名称或后缀来选择文件。不分大小写。
符号使用:
和:空格( )、+
不包含:-
或:|
转义:一对英文引号("");
匹配开头:^
匹配结尾:$
例如:
选中所有名称中包含有“eMule”或“0.49c”字眼,但不包含有“exe”字眼的:emule|0.49c -exe
选中所有名称的开头是“eMule”,结尾是“0.49c”的:^emule 0.49c$
选中所有名称中带有“eMule 0.49c”的(必须是“eMule 0.49c”,中间没有别的字符,不能是“eMule fake 0.49c”),需要转义:"emule 0.49c"
大小选择器帮您根据文件大小选择文件。