当前位置: 首页 >> 欧美电影 >> 警醒[简繁字幕].Jolt.2021.UHD.BluRay.2160p.DTS-HD.MA.7.1.x265.10bit-btbt9527.com 14.23GB >> 正文

警醒[简繁字幕].Jolt.2021.UHD.BluRay.2160p.DTS-HD.MA.7.1.x265.10bit-btbt9527.com 14.23GB

2021年12月09日 11:00:58     电影发布:来源于网络     电影分类:欧美电影     评论(0)    

警醒[简繁字幕].Jolt.2021.UHD.BluRay.2160p.DTS HD.MA.7.1.x265.10bit btbt9527.com 14.23GB 惊悚片 动作片 欧美电影  第1张

◎译 名 警醒

◎片 名 Jolt

◎年 代 2021

◎产 地 美国

◎类 别 动作 / 惊悚

◎语 言 英语

◎上映日期 2021-07-23(美国)

◎IMDb链接 https://www.imdb.com/title/tt10228134/

◎豆瓣评分 5.6/10 (2291人评价)

◎豆瓣链接 https://movie.douban.com/subject/33423676/

◎片 长 91分钟

◎导 演 谭雅·维克斯勒 Tanya Wexler (id:1023230)

◎演 员 凯特·贝金赛尔 Kate Beckinsale (id:1003487)

斯坦利·图齐 Stanley Tucci (id:1040517)

鲍比·坎纳瓦尔 Bobby Cannavale (id:1044985)

苏珊·萨兰登 Susan Sarandon (id:1054392)

杰·科特尼 Jai Courtney (id:1324668)

大卫·布拉德利 David Bradley (id:1072471)

拉弗恩·考克斯 Laverne Cox (id:1332182)

克里斯蒂安·布拉辛顿 Christian Brassington (id:1223458)

奥利·普费弗 Ori Pfeffer (id:1395525)

康斯坦丁·格雷戈里 Constantine Gregory (id:1100751)

内森·库珀 Nathan Cooper (id:1383903)

哈里·阿尼奇金 Harry Anichkin (id:1191175)

◎标 签 动作 / 凯特·贝金赛尔 / 美国 / 2021 / 美国电影 / 喜剧 / 惊悚 / katebeckinsale

◎简 介

琳迪这个漂亮风趣的女人有一个痛苦的秘密:由于终身的、罕见的神经紊乱,她经历了阵发性的狂怒杀人冲动,解决方式只有用特殊电极装置电自己。在一个害怕她的奇怪状况的世界里,她无法找到爱和联系,最终她信任了一个男人,并爱上了他,却发现第二天他被谋杀了。

琳迪感到心碎和愤怒,她开始了一个复仇值拉满的任务,寻找幕后杀手,与此同时,她也被警察作为这个案子的头号嫌疑犯追捕着。

  1. ##### MediaInfo ######

  2. General

  3. Unique ID : 74111772112460627161282951244466533944 (0x37C1687A2DBF934E46550146B2F2B638)

  4. Complete name : [email protected]e.HDR.mkv

  5. Format : Matroska

  6. Format version : Version 4

  7. File size : 14.2 GiB

  8. Duration : 1 h 31 min

  9. Overall bit rate mode : Variable

  10. Overall bit rate : 22.3 Mb/s

  11. Encoded date : UTC 2021-12-08 07:38:07

  12. Writing application : mkvmerge v49.0.0 ('Sick Of Losing Soulmates') 64-bit

  13. Writing library : libebml v1.4.0 + libmatroska v1.6.1


  14. Video

  15. ID : 1

  16. Format : HEVC

  17. Format/Info : High Efficiency Video Coding

  18. Format profile : Main [email protected]@High

  19. HDR format : SMPTE ST 2086, HDR10 compatible

  20. Codec ID : V_MPEGH/ISO/HEVC

  21. Duration : 1 h 31 min

  22. Bit rate : 17.0 Mb/s

  23. Width : 3 840 pixels

  24. Height : 1 610 pixels

  25. Display aspect ratio : 2.40:1

  26. Frame rate mode : Constant

  27. Frame rate : 24.000 FPS

  28. Color space : YUV

  29. Chroma subsampling : 4:2:0 (Type 2)

  30. Bit depth : 10 bits

  31. Bits/(Pixel*Frame) : 0.115

  32. Stream size : 10.9 GiB (76%)

  33. Title : HEVC, [email protected]@High, 24 fps @ 17016 kbps

  34. Writing library : x265 3.4+14-gd419c7152:[Windows][GCC 10.2.0][64 bit] 10bit

  35. Encoding settings : cpuid=533541111039 / frame-threads=4 / numa-pools=20 / wpp / pmode / pme / no-psnr / no-ssim / log-level=2 / input-csp=1 / input-res=3840x1610 / interlace=0 / total-frames=131803 / level-idc=51 / high-tier=1 / uhd-bd=0 / ref=4 / no-allow-non-conformance / repeat-headers / annexb / no-aud / hrd / info / hash=0 / no-temporal-layers / no-open-gop / min-keyint=24 / keyint=240 / gop-lookahead=0 / bframes=8 / b-adapt=2 / b-pyramid / bframe-bias=0 / rc-lookahead=25 / lookahead-slices=0 / NTMzNTQ=uuDQuD2mJt9fsCf / scenecut=40 / hist-scenecut=0 / radl=0 / no-splice / no-intra-refresh / ctu=64 / min-cu-size=8 / no-rect / no-amp / max-tu-size=32 / tu-inter-depth=3 / tu-intra-depth=3 / limit-tu=4 / rdoq-level=2 / dynamic-rd=0.00 / no-ssim-rd / signhide / no-tskip / nr-intra=0 / nr-inter=0 / no-constrained-intra / no-strong-intra-smoothing / max-merge=4 / limit-refs=1 / limit-modes / me=3 / subme=4 / merange=25 / temporal-mvp / no-frame-dup / no-hme / weightp / weightb / no-analyze-src-pics / deblock=-3:-3 / no-sao / no-sao-non-deblock / rd=6 / selective-sao=0 / no-early-skip / rskip / no-fast-intra / no-tskip-fast / no-cu-lossless / b-intra / no-splitrd-skip / rdpenalty=0 / psy-rd=2.00 / psy-rdoq=1.00 / no-rd-refine / no-lossless / cbqpoffs=0 / crqpoffs=0 / rc=crf / crf=17.0 / qcomp=0.65 / qpstep=4 / stats-write=0 / stats-read=0 / vbv-maxrate=160000 / vbv-bufsize=160000 / vbv-init=0.9 / crf-max=0.0 / crf-min=0.0 / ipratio=1.30 / pbratio=1.20 / aq-mode=3 / aq-strength=0.85 / cutree / zone-count=0 / no-strict-cbr / qg-size=32 / no-rc-grain / qpmax=69 / qpmin=0 / no-const-vbv / sar=1 / overscan=0 / videoformat=5 / range=0 / colorprim=9 / transfer=16 / colormatrix=9 / chromaloc=1 / chromaloc-top=2 / chromaloc-bottom=2 / display-window=0 / master-display=G(13250,34500)B(7500,3000)R(34000,16000)WP(15635,16450)L(10000000,50) / cll=6733,626 / min-luma=0 / max-luma=1023 / log2-max-poc-lsb=8 / vui-timing-info / vui-hrd-info / slices=1 / no-opt-qp-pps / no-opt-ref-list-length-pps / no-multi-pass-opt-rps / scenecut-bias=0.05 / hist-threshold=0.03 / no-opt-cu-delta-qp / no-aq-motion / hdr10 / hdr10-opt / no-dhdr10-opt / no-idr-recovery-sei / analysis-reuse-level=0 / analysis-save-reuse-level=0 / analysis-load-reuse-level=0 / scale-factor=0 / refine-intra=0 / refine-inter=0 / refine-mv=1 / refine-ctu-distortion=0 / no-limit-sao / ctu-info=0 / no-lowpass-dct / refine-analysis-type=0 / copy-pic=1 / max-ausize-factor=1.0 / no-dynamic-refine / no-single-sei / no-hevc-aq / no-svt / no-field / qp-adaptation-range=1.00 / no-scenecut-aware-qpconformance-window-offsets / right=0 / bottom=0 / NTMzNTQ= / decoder-max-rate=0

  36. Language : English

  37. Default : Yes

  38. Forced : No

  39. Color range : Limited

  40. Color primaries : BT.2020

  41. Transfer characteristics : PQ

  42. Matrix coefficients : BT.2020 non-constant

  43. Mastering display color primaries : Display P3

  44. Mastering display luminance : min: 0.0050 cd/m2, max: 1000 cd/m2

  45. Maximum Content Light Level : 6733 cd/m2

  46. Maximum Frame-Average Light Level : 626 cd/m2


  47. Audio

  48. ID : 2

  49. Format : DTS XLL

  50. Format/Info : Digital Theater Systems

  51. Commercial name : DTS-HD Master Audio

  52. Codec ID : A_DTS

  53. Duration : 1 h 31 min

  54. Bit rate mode : Variable

  55. Bit rate : 4 998 kb/s

  56. Channel(s) : 8 channels

  57. Channel layout : C L R LFE Lb Rb Lss Rss

  58. Sampling rate : 48.0 kHz

  59. Frame rate : 93.750 FPS (512 SPF)

  60. Bit depth : 24 bits

  61. Compression mode : Lossless

  62. Stream size : 3.20 GiB (22%)

  63. Title : English DTS-HD Master Audio 7.1 @ 4998 kbps

  64. Language : English

  65. Default : Yes

  66. Forced : No


  67. Text #1

  68. ID : 3

  69. Format : PGS

  70. Codec ID : S_HDMV/PGS

  71. Codec ID/Info : Picture based subtitle format used on BDs/HD-DVDs

  72. Duration : 1 h 24 min

  73. Bit rate : 42.4 kb/s

  74. Count of elements : 2584

  75. Stream size : 25.6 MiB (0%)

  76. Title : Eng/SUP

  77. Language : English

  78. Default : No

  79. Forced : No


  80. Text #2

  81. ID : 4

  82. Format : PGS

  83. Codec ID : S_HDMV/PGS

  84. Codec ID/Info : Picture based subtitle format used on BDs/HD-DVDs

  85. Duration : 1 h 24 min

  86. Bit rate : 39.1 kb/s

  87. Count of elements : 2543

  88. Stream size : 23.7 MiB (0%)

  89. Title : Chs/SUP 简体

  90. Language : Chinese

  91. Default : Yes

  92. Forced : No


  93. Text #3

  94. ID : 5

  95. Format : PGS

  96. Codec ID : S_HDMV/PGS

  97. Codec ID/Info : Picture based subtitle format used on BDs/HD-DVDs

  98. Duration : 1 h 24 min

  99. Bit rate : 40.0 kb/s

  100. Count of elements : 2543

  101. Stream size : 24.2 MiB (0%)

  102. Title : Cht/SUP 繁体

  103. Language : Chinese

  104. Default : No

  105. Forced : No


  106. Text #4

  107. ID : 6

  108. Format : PGS

  109. Codec ID : S_HDMV/PGS

  110. Codec ID/Info : Picture based subtitle format used on BDs/HD-DVDs

  111. Duration : 1 h 24 min

  112. Bit rate : 65.3 kb/s

  113. Count of elements : 2543

  114. Stream size : 39.5 MiB (0%)

  115. Title : Chs/SUP 简英双语

  116. Language : Chinese

  117. Default : No

  118. Forced : No


  119. Text #5

  120. ID : 7

  121. Format : PGS

  122. Codec ID : S_HDMV/PGS

  123. Codec ID/Info : Picture based subtitle format used on BDs/HD-DVDs

  124. Duration : 1 h 24 min

  125. Bit rate : 66.2 kb/s

  126. Count of elements : 2543

  127. Stream size : 40.0 MiB (0%)

  128. Title : Cht/SUP 繁英双语

  129. Language : Chinese

  130. Default : No

  131. Forced : No


  132. Menu

  133. 00:00:00.000 : en:第 01 章

  134. 00:11:20.875 : en:第 02 章

  135. 00:22:42.375 : en:第 03 章

  136. 00:32:00.667 : en:第 04 章

  137. 00:44:03.083 : en:第 05 章

  138. 00:51:41.708 : en:第 06 章

  139. 01:03:19.625 : en:第 07 章

  140. 01:15:45.250 : en:第 08 章

  141. 01:25:10.958 : en:第 09 章




复制代码



文件下载


除非特别注明,本文『警醒[简繁字幕].Jolt.2021.UHD.BluRay.2160p.DTS-HD.MA.7.1.x265.10bit-btbt9527.com 14.23GB』来源于互联网机器人自动抓取,非本站原创。 浮游电影网不对本文拥有版权,如有侵犯,请联系邮箱:fuyouu#yandex.com[#换成@]投诉。我们会在15个工作日内删除。 但烦请转载时请标明出处:“本文转载于『浮游电影网』,原文地址:https://www.fuyouu.com/19206.html

评论吧骚年!

发表你的见解   

昵称*

E-mail*(建议输入,以便收到博主回复的提示邮件)

验证码*

您可以使用eMule或eMule Mod(Windows)、aMule(Win、Linux、Mac)等软件下载eD2k链接。。
eMule收藏集(.emulecollection)文件是您选中的所有链接的列表文件。eMule可以直接下载它们。
按住SHIFT键选择可以选中多个选择框。
可用文件名和大小选择器来选择文件。
文件名选择器帮您根据文件名称或后缀来选择文件。不分大小写。
符号使用:
和:空格( )、+
不包含:-
或:|
转义:一对英文引号("");
匹配开头:^
匹配结尾:$
例如:
选中所有名称中包含有“eMule”或“0.49c”字眼,但不包含有“exe”字眼的:emule|0.49c -exe
选中所有名称的开头是“eMule”,结尾是“0.49c”的:^emule 0.49c$
选中所有名称中带有“eMule 0.49c”的(必须是“eMule 0.49c”,中间没有别的字符,不能是“eMule fake 0.49c”),需要转义:"emule 0.49c"
大小选择器帮您根据文件大小选择文件。